  0
SECTION
  2
HEADER
  9
$ACADVER
  1
AC1014
  9
$ACADMAINTVER
 70
     0
  9
$DWGCODEPAGE
  3
ANSI_1252
  9
$INSBASE
 10
0.0
 20
0.0
 30
0.0
  9
$EXTMIN
 10
-0.931323
 20
0.0
 30
0.0
  9
$EXTMAX
 10
120.0
 20
90.0
 30
0.0
  9
$LIMMIN
 10
0.0
 20
0.0
  9
$LIMMAX
 10
120.0
 20
90.0
  9
$ORTHOMODE
 70
     0
  9
$REGENMODE
 70
     1
  9
$FILLMODE
 70
     1
  9
$QTEXTMODE
 70
     0
  9
$MIRRTEXT
 70
     1
  9
$DRAGMODE
 70
     2
  9
$LTSCALE
 40
10.0
  9
$OSMODE
 70
   703
  9
$ATTMODE
 70
     1
  9
$TEXTSIZE
 40
1.0
  9
$TRACEWID
 40
0.05
  9
$TEXTSTYLE
  7
STANDARD
  9
$CLAYER
  8
0
  9
$CELTYPE
  6
BYLAYER
  9
$CECOLOR
 62
   256
  9
$CELTSCALE
 40
1.0
  9
$DELOBJ
 70
     1
  9
$DISPSILH
 70
     0
  9
$DIMSCALE
 40
10.0
  9
$DIMASZ
 40
0.18
  9
$DIMEXO
 40
0.0625
  9
$DIMDLI
 40
0.38
  9
$DIMRND
 40
0.0
  9
$DIMDLE
 40
0.0
  9
$DIMEXE
 40
0.18
  9
$DIMTP
 40
0.0
  9
$DIMTM
 40
0.0
  9
$DIMTXT
 40
0.18
  9
$DIMCEN
 40
0.09
  9
$DIMTSZ
 40
0.0
  9
$DIMTOL
 70
     0
  9
$DIMLIM
 70
     0
  9
$DIMTIH
 70
     1
  9
$DIMTOH
 70
     1
  9
$DIMSE1
 70
     0
  9
$DIMSE2
 70
     0
  9
$DIMTAD
 70
     0
  9
$DIMZIN
 70
     0
  9
$DIMBLK
  1

  9
$DIMASO
 70
     1
  9
$DIMSHO
 70
     1
  9
$DIMPOST
  1

  9
$DIMAPOST
  1

  9
$DIMALT
 70
     0
  9
$DIMALTD
 70
     2
  9
$DIMALTF
 40
25.4
  9
$DIMLFAC
 40
1.0
  9
$DIMTOFL
 70
     0
  9
$DIMTVP
 40
0.0
  9
$DIMTIX
 70
     0
  9
$DIMSOXD
 70
     0
  9
$DIMSAH
 70
     0
  9
$DIMBLK1
  1

  9
$DIMBLK2
  1

  9
$DIMSTYLE
  2
STANDARD_WS
  9
$DIMCLRD
 70
     0
  9
$DIMCLRE
 70
     0
  9
$DIMCLRT
 70
     0
  9
$DIMTFAC
 40
1.0
  9
$DIMGAP
 40
0.09
  9
$DIMJUST
 70
     0
  9
$DIMSD1
 70
     0
  9
$DIMSD2
 70
     0
  9
$DIMTOLJ
 70
     1
  9
$DIMTZIN
 70
     0
  9
$DIMALTZ
 70
     0
  9
$DIMALTTZ
 70
     0
  9
$DIMFIT
 70
     3
  9
$DIMUPT
 70
     0
  9
$DIMUNIT
 70
     2
  9
$DIMDEC
 70
     2
  9
$DIMTDEC
 70
     2
  9
$DIMALTU
 70
     2
  9
$DIMALTTD
 70
     2
  9
$DIMTXSTY
  7
STANDARD
  9
$DIMAUNIT
 70
     0
  9
$LUNITS
 70
     2
  9
$LUPREC
 70
     2
  9
$SKETCHINC
 40
0.1
  9
$FILLETRAD
 40
0.25
  9
$AUNITS
 70
     0
  9
$AUPREC
 70
     0
  9
$MENU
  1
acad
  9
$ELEVATION
 40
0.0
  9
$PELEVATION
 40
0.0
  9
$THICKNESS
 40
0.0
  9
$LIMCHECK
 70
     0
  9
$BLIPMODE
 70
     0
  9
$CHAMFERA
 40
5.0
  9
$CHAMFERB
 40
5.0
  9
$CHAMFERC
 40
10.0
  9
$CHAMFERD
 40
0.0
  9
$SKPOLY
 70
     0
  9
$TDCREATE
 40
2452161.513007870
  9
$TDUPDATE
 40
2452161.514377199
  9
$TDINDWG
 40
0.0013693287
  9
$TDUSRTIMER
 40
0.0013693287
  9
$USRTIMER
 70
     1
  9
$ANGBASE
 50
0.0
  9
$ANGDIR
 70
     0
  9
$PDMODE
 70
     0
  9
$PDSIZE
 40
0.0
  9
$PLINEWID
 40
0.0
  9
$COORDS
 70
     1
  9
$SPLFRAME
 70
     0
  9
$SPLINETYPE
 70
     6
  9
$SPLINESEGS
 70
     8
  9
$ATTDIA
 70
     0
  9
$ATTREQ
 70
     1
  9
$HANDLING
 70
     1
  9
$HANDSEED
  5
2E9
  9
$SURFTAB1
 70
     6
  9
$SURFTAB2
 70
     6
  9
$SURFTYPE
 70
     6
  9
$SURFU
 70
     6
  9
$SURFV
 70
     6
  9
$UCSNAME
  2

  9
$UCSORG
 10
0.0
 20
0.0
 30
0.0
  9
$UCSXDIR
 10
1.0
 20
0.0
 30
0.0
  9
$UCSYDIR
 10
0.0
 20
1.0
 30
0.0
  9
$PUCSNAME
  2

  9
$PUCSORG
 10
0.0
 20
0.0
 30
0.0
  9
$PUCSXDIR
 10
1.0
 20
0.0
 30
0.0
  9
$PUCSYDIR
 10
0.0
 20
1.0
 30
0.0
  9
$USERI1
 70
     0
  9
$USERI2
 70
     0
  9
$USERI3
 70
     0
  9
$USERI4
 70
     0
  9
$USERI5
 70
     0
  9
$USERR1
 40
0.0
  9
$USERR2
 40
0.0
  9
$USERR3
 40
0.0
  9
$USERR4
 40
0.0
  9
$USERR5
 40
0.0
  9
$WORLDVIEW
 70
     1
  9
$SHADEDGE
 70
     3
  9
$SHADEDIF
 70
    70
  9
$TILEMODE
 70
     1
  9
$MAXACTVP
 70
    48
  9
$PINSBASE
 10
0.0
 20
0.0
 30
0.0
  9
$PLIMCHECK
 70
     0
  9
$PEXTMIN
 10
1.000000E+20
 20
1.000000E+20
 30
1.000000E+20
  9
$PEXTMAX
 10
-1.000000E+20
 20
-1.000000E+20
 30
-1.000000E+20
  9
$PLIMMIN
 10
0.0
 20
0.0
  9
$PLIMMAX
 10
12.0
 20
9.0
  9
$UNITMODE
 70
     0
  9
$VISRETAIN
 70
     1
  9
$PLINEGEN
 70
     0
  9
$PSLTSCALE
 70
     1
  9
$TREEDEPTH
 70
  3020
  9
$PICKSTYLE
 70
     0
  9
$CMLSTYLE
  2
STANDARD
  9
$CMLJUST
 70
     0
  9
$CMLSCALE
 40
1.0
  9
$PROXYGRAPHICS
 70
     1
  9
$MEASUREMENT
 70
     0
  0
ENDSEC
  0
SECTION
  2
CLASSES
  0
CLASS
  1
DICTIONARYVAR
  2
AcDbDictionaryVar
  3
"AutoCAD"
 90
        0
280
     0
281
     0
  0
CLASS
  1
LWPOLYLINE
  2
AcDbPolyline
  3
"AutoCAD"
 90
        0
280
     0
281
     1
  0
ENDSEC
  0
SECTION
  2
TABLES
  0
TABLE
  2
VPORT
  5
8
100
AcDbSymbolTable
 70
     2
  0
VPORT
  5
2E8
100
AcDbSymbolTableRecord
100
AcDbViewportTableRecord
  2
*ACTIVE
 70
     0
 10
0.0
 20
0.0
 11
1.0
 21
1.0
 12
42.657063
 22
44.738573
 13
0.0
 23
0.0
 14
5.0
 24
5.0
 15
5.0
 25
5.0
 16
0.0
 26
0.0
 36
1.0
 17
0.0
 27
0.0
 37
0.0
 40
87.75852
 41
2.132565
 42
50.0
 43
0.0
 44
0.0
 50
0.0
 51
0.0
 71
     0
 72
   100
 73
     1
 74
     1
 75
     0
 76
     0
 77
     0
 78
     0
  0
ENDTAB
  0
TABLE
  2
LTYPE
  5
5
100
AcDbSymbolTable
 70
     2
  0
LTYPE
  5
12
100
AcDbSymbolTableRecord
100
AcDbLinetypeTableRecord
  2
BYBLOCK
 70
     0
  3

 72
    65
 73
     0
 40
0.0
  0
LTYPE
  5
13
100
AcDbSymbolTableRecord
100
AcDbLinetypeTableRecord
  2
BYLAYER
 70
     0
  3

 72
    65
 73
     0
 40
0.0
  0
LTYPE
  5
14
100
AcDbSymbolTableRecord
100
AcDbLinetypeTableRecord
  2
CONTINUOUS
 70
     0
  3
Solid line
 72
    65
 73
     0
 40
0.0
  0
LTYPE
  5
194
100
AcDbSymbolTableRecord
100
AcDbLinetypeTableRecord
  2
DASHDOT2
 70
     0
  3
Dash dot (.5x) _._._._._._._._._._._._._._._.
 72
    65
 73
     4
 40
0.5
 49
0.25
 74
     0
 49
-0.125
 74
     0
 49
0.0
 74
     0
 49
-0.125
 74
     0
  0
ENDTAB
  0
TABLE
  2
LAYER
  5
2
100
AcDbSymbolTable
 70
     2
  0
LAYER
  5
E
100
AcDbSymbolTableRecord
100
AcDbLayerTableRecord
  2
0
 70
     0
 62
     7
  6
CONTINUOUS
  0
LAYER
  5
6B
100
AcDbSymbolTableRecord
100
AcDbLayerTableRecord
  2
DEFPOINTS
 70
     0
 62
     7
  6
CONTINUOUS
  0
ENDTAB
  0
TABLE
  2
STYLE
  5
3
100
AcDbSymbolTable
 70
     2
  0
STYLE
  5
F
100
AcDbSymbolTableRecord
100
AcDbTextStyleTableRecord
  2
STANDARD
 70
     0
 40
0.0
 41
1.0
 50
0.0
 71
     0
 42
1.0
  3
txt
  4

  0
STYLE
  5
193
100
AcDbSymbolTableRecord
100
AcDbTextStyleTableRecord
  2

 70
     1
 40
0.0
 41
1.0
 50
0.0
 71
     0
 42
1.0
  3
ltypeshp.shx
  4

  0
ENDTAB
  0
TABLE
  2
VIEW
  5
6
100
AcDbSymbolTable
 70
     0
  0
ENDTAB
  0
TABLE
  2
UCS
  5
7
100
AcDbSymbolTable
 70
     0
  0
ENDTAB
  0
TABLE
  2
APPID
  5
9
100
AcDbSymbolTable
 70
     1
  0
APPID
  5
10
100
AcDbSymbolTableRecord
100
AcDbRegAppTableRecord
  2
ACAD
 70
     0
  0
ENDTAB
  0
TABLE
  2
DIMSTYLE
  5
A
100
AcDbSymbolTable
 70
     2
  0
DIMSTYLE
105
1D
100
AcDbSymbolTableRecord
100
AcDbDimStyleTableRecord
  2
STANDARD
 70
     0
  3

  4

  5

  6

  7

 40
1.0
 41
0.18
 42
0.0625
 43
0.38
 44
0.18
 45
0.0
 46
0.0
 47
0.0
 48
0.0
140
0.18
141
0.09
142
0.0
143
25.4
144
1.0
145
0.0
146
1.0
147
0.09
 71
     0
 72
     0
 73
     1
 74
     1
 75
     0
 76
     0
 77
     0
 78
     0
170
     0
171
     2
172
     0
173
     0
174
     0
175
     0
176
     0
177
     0
178
     0
270
     2
271
     4
272
     4
273
     2
274
     2
340
F
275
     0
280
     0
281
     0
282
     0
283
     1
284
     0
285
     0
286
     0
287
     3
288
     0
  0
DIMSTYLE
105
32
102
{ACAD_REACTORS
330
1A4
330
21B
330
23A
330
248
330
258
330
276
330
2D8
330
2E7
102
}
100
AcDbSymbolTableRecord
100
AcDbDimStyleTableRecord
  2
STANDARD_WS
 70
     0
  3

  4

  5

  6

  7

 40
10.0
 41
0.18
 42
0.0625
 43
0.38
 44
0.18
 45
0.0
 46
0.0
 47
0.0
 48
0.0
140
0.18
141
0.09
142
0.0
143
25.4
144
1.0
145
0.0
146
1.0
147
0.09
 71
     0
 72
     0
 73
     1
 74
     1
 75
     0
 76
     0
 77
     0
 78
     0
170
     0
171
     2
172
     0
173
     0
174
     0
175
     0
176
     0
177
     0
178
     0
270
     2
271
     2
272
     2
273
     2
274
     2
340
F
275
     0
280
     0
281
     0
282
     0
283
     1
284
     0
285
     0
286
     0
287
     3
288
     0
  0
ENDTAB
  0
TABLE
  2
BLOCK_RECORD
  5
1
100
AcDbSymbolTable
 70
    25
  0
BLOCK_RECORD
  5
18
100
AcDbSymbolTableRecord
100
AcDbBlockTableRecord
  2
*MODEL_SPACE
  0
BLOCK_RECORD
  5
15
100
AcDbSymbolTableRecord
100
AcDbBlockTableRecord
  2
*PAPER_SPACE
  0
BLOCK_RECORD
  5
62
100
AcDbSymbolTableRecord
100
AcDbBlockTableRecord
  2
*D0
  0
BLOCK_RECORD
  5
71
100
AcDbSymbolTableRecord
100
AcDbBlockTableRecord
  2
*D1
  0
BLOCK_RECORD
  5
7F
100
AcDbSymbolTableRecord
100
AcDbBlockTableRecord
  2
*D2
  0
BLOCK_RECORD
  5
8E
100
AcDbSymbolTableRecord
100
AcDbBlockTableRecord
  2
*D3
  0
BLOCK_RECORD
  5
9C
100
AcDbSymbolTableRecord
100
AcDbBlockTableRecord
  2
*D4
  0
BLOCK_RECORD
  5
C7
100
AcDbSymbolTableRecord
100
AcDbBlockTableRecord
  2
*D5
  0
BLOCK_RECORD
  5
115
100
AcDbSymbolTableRecord
100
AcDbBlockTableRecord
  2
*D6
  0
BLOCK_RECORD
  5
124
100
AcDbSymbolTableRecord
100
AcDbBlockTableRecord
  2
*D7
  0
BLOCK_RECORD
  5
132
100
AcDbSymbolTableRecord
100
AcDbBlockTableRecord
  2
*D8
  0
BLOCK_RECORD
  5
140
100
AcDbSymbolTableRecord
100
AcDbBlockTableRecord
  2
*D9
  0
BLOCK_RECORD
  5
14E
100
AcDbSymbolTableRecord
100
AcDbBlockTableRecord
  2
*D10
  0
BLOCK_RECORD
  5
197
100
AcDbSymbolTableRecord
100
AcDbBlockTableRecord
  2
*D11
  0
BLOCK_RECORD
  5
1A5
100
AcDbSymbolTableRecord
100
AcDbBlockTableRecord
  2
*D12
  0
BLOCK_RECORD
  5
1B3
100
AcDbSymbolTableRecord
100
AcDbBlockTableRecord
  2
*D13
  0
BLOCK_RECORD
  5
200
100
AcDbSymbolTableRecord
100
AcDbBlockTableRecord
  2
*D14
  0
BLOCK_RECORD
  5
20E
100
AcDbSymbolTableRecord
100
AcDbBlockTableRecord
  2
*D15
  0
BLOCK_RECORD
  5
21C
100
AcDbSymbolTableRecord
100
AcDbBlockTableRecord
  2
*D16
  0
BLOCK_RECORD
  5
22C
100
AcDbSymbolTableRecord
100
AcDbBlockTableRecord
  2
*D17
  0
BLOCK_RECORD
  5
23B
100
AcDbSymbolTableRecord
100
AcDbBlockTableRecord
  2
*D18
  0
BLOCK_RECORD
  5
24A
100
AcDbSymbolTableRecord
100
AcDbBlockTableRecord
  2
*D19
  0
BLOCK_RECORD
  5
268
100
AcDbSymbolTableRecord
100
AcDbBlockTableRecord
  2
*D20
  0
BLOCK_RECORD
  5
285
100
AcDbSymbolTableRecord
100
AcDbBlockTableRecord
  2
*D21
  0
BLOCK_RECORD
  5
2AE
100
AcDbSymbolTableRecord
100
AcDbBlockTableRecord
  2
*D22
  0
BLOCK_RECORD
  5
2CA
100
AcDbSymbolTableRecord
100
AcDbBlockTableRecord
  2
*D23
  0
BLOCK_RECORD
  5
2DA
100
AcDbSymbolTableRecord
100
AcDbBlockTableRecord
  2
*D24
  0
ENDTAB
  0
ENDSEC
  0
SECTION
  2
BLOCKS
  0
BLOCK
  5
19
100
AcDbEntity
  8
0
100
AcDbBlockBegin
  2
*MODEL_SPACE
 70
     0
 10
0.0
 20
0.0
 30
0.0
  3
*MODEL_SPACE
  1

  0
ENDBLK
  5
1A
100
AcDbEntity
  8
0
100
AcDbBlockEnd
  0
BLOCK
  5
16
100
AcDbEntity
 67
     1
  8
0
100
AcDbBlockBegin
  2
*PAPER_SPACE
 70
     0
 10
0.0
 20
0.0
 30
0.0
  3
*PAPER_SPACE
  1

  0
ENDBLK
  5
17
100
AcDbEntity
 67
     1
  8
0
100
AcDbBlockEnd
  0
BLOCK
  5
63
100
AcDbEntity
  8
0
100
AcDbBlockBegin
  2
*D0
 70
     1
 10
0.0
 20
0.0
 30
0.0
  3
*D0
  1

  0
LINE
  5
64
100
AcDbEntity
  8
0
  6
BYBLOCK
 62
     0
100
AcDbLine
 10
7.950953
 20
36.65
 30
0.0
 11
7.950953
 21
40.880855
 31
0.0
  0
LINE
  5
65
100
AcDbEntity
  8
0
  6
BYBLOCK
 62
     0
100
AcDbLine
 10
27.950953
 20
36.65
 30
0.0
 11
27.950953
 21
40.880855
 31
0.0
  0
LINE
  5
66
100
AcDbEntity
  8
0
  6
BYBLOCK
 62
     0
100
AcDbLine
 10
9.750953
 20
39.080855
 30
0.0
 11
13.900953
 21
39.080855
 31
0.0
  0
LINE
  5
67
100
AcDbEntity
  8
0
  6
BYBLOCK
 62
     0
100
AcDbLine
 10
26.150953
 20
39.080855
 30
0.0
 11
22.000953
 21
39.080855
 31
0.0
  0
SOLID
  5
68
100
AcDbEntity
  8
0
  6
BYBLOCK
 62
     0
100
AcDbTrace
 10
9.750953
 20
39.380855
 30
0.0
 11
9.750953
 21
38.780855
 31
0.0
 12
7.950953
 22
39.080855
 32
0.0
 13
7.950953
 23
39.080855
 33
0.0
  0
SOLID
  5
69
100
AcDbEntity
  8
0
  6
BYBLOCK
 62
     0
100
AcDbTrace
 10
26.150953
 20
39.380855
 30
0.0
 11
26.150953
 21
38.780855
 31
0.0
 12
27.950953
 22
39.080855
 32
0.0
 13
27.950953
 23
39.080855
 33
0.0
  0
MTEXT
  5
6A
100
AcDbEntity
  8
0
  6
BYBLOCK
 62
     0
100
AcDbMText
 10
17.950953
 20
39.080855
 30
0.0
 40
1.8
 41
0.0
 71
     5
 72
     1
  1
\A1;20.00
  0
POINT
  5
6C
100
AcDbEntity
  8
DEFPOINTS
  6
BYBLOCK
 62
     0
100
AcDbPoint
 10
7.950953
 20
36.025
 30
0.0
  0
POINT
  5
6D
100
AcDbEntity
  8
DEFPOINTS
  6
BYBLOCK
 62
     0
100
AcDbPoint
 10
27.950953
 20
36.025
 30
0.0
  0
POINT
  5
6E
100
AcDbEntity
  8
DEFPOINTS
  6
BYBLOCK
 62
     0
100
AcDbPoint
 10
27.950953
 20
39.080855
 30
0.0
  0
ENDBLK
  5
6F
100
AcDbEntity
  8
0
100
AcDbBlockEnd
  0
BLOCK
  5
72
100
AcDbEntity
  8
0
100
AcDbBlockBegin
  2
*D1
 70
     1
 10
0.0
 20
0.0
 30
0.0
  3
*D1
  1

  0
LINE
  5
73
100
AcDbEntity
  8
0
  6
BYBLOCK
 62
     0
100
AcDbLine
 10
27.950953
 20
36.65
 30
0.0
 11
27.950953
 21
40.872844
 31
0.0
  0
LINE
  5
74
100
AcDbEntity
  8
0
  6
BYBLOCK
 62
     0
100
AcDbLine
 10
37.950953
 20
35.15
 30
0.0
 11
37.950953
 21
40.872844
 31
0.0
  0
LINE
  5
75
100
AcDbEntity
  8
0
  6
BYBLOCK
 62
     0
100
AcDbLine
 10
26.150953
 20
39.072844
 30
0.0
 11
24.350953
 21
39.072844
 31
0.0
  0
LINE
  5
76
100
AcDbEntity
  8
0
  6
BYBLOCK
 62
     0
100
AcDbLine
 10
39.750953
 20
39.072844
 30
0.0
 11
41.550953
 21
39.072844
 31
0.0
  0
SOLID
  5
77
100
AcDbEntity
  8
0
  6
BYBLOCK
 62
     0
100
AcDbTrace
 10
26.150953
 20
39.372844
 30
0.0
 11
26.150953
 21
38.772844
 31
0.0
 12
27.950953
 22
39.072844
 32
0.0
 13
27.950953
 23
39.072844
 33
0.0
  0
SOLID
  5
78
100
AcDbEntity
  8
0
  6
BYBLOCK
 62
     0
100
AcDbTrace
 10
39.750953
 20
39.372844
 30
0.0
 11
39.750953
 21
38.772844
 31
0.0
 12
37.950953
 22
39.072844
 32
0.0
 13
37.950953
 23
39.072844
 33
0.0
  0
MTEXT
  5
79
100
AcDbEntity
  8
0
  6
BYBLOCK
 62
     0
100
AcDbMText
 10
32.950953
 20
39.072844
 30
0.0
 40
1.8
 41
0.0
 71
     5
 72
     1
  1
\A1;10.00
  0
POINT
  5
7A
100
AcDbEntity
  8
DEFPOINTS
  6
BYBLOCK
 62
     0
100
AcDbPoint
 10
27.950953
 20
36.025
 30
0.0
  0
POINT
  5
7B
100
AcDbEntity
  8
DEFPOINTS
  6
BYBLOCK
 62
     0
100
AcDbPoint
 10
37.950953
 20
34.525
 30
0.0
  0
POINT
  5
7C
100
AcDbEntity
  8
DEFPOINTS
  6
BYBLOCK
 62
     0
100
AcDbPoint
 10
37.950953
 20
39.072844
 30
0.0
  0
ENDBLK
  5
7D
100
AcDbEntity
  8
0
100
AcDbBlockEnd
  0
BLOCK
  5
80
100
AcDbEntity
  8
0
100
AcDbBlockBegin
  2
*D2
 70
     1
 10
0.0
 20
0.0
 30
0.0
  3
*D2
  1

  0
LINE
  5
81
100
AcDbEntity
  8
0
  6
BYBLOCK
 62
     0
100
AcDbLine
 10
38.575953
 20
33.525
 30
0.0
 11
42.279385
 21
33.525
 31
0.0
  0
LINE
  5
82
100
AcDbEntity
  8
0
  6
BYBLOCK
 62
     0
100
AcDbLine
 10
38.575953
 20
34.525
 30
0.0
 11
42.279385
 21
34.525
 31
0.0
  0
LINE
  5
83
100
AcDbEntity
  8
0
  6
BYBLOCK
 62
     0
100
AcDbLine
 10
40.479385
 20
31.725
 30
0.0
 11
40.479385
 21
29.925
 31
0.0
  0
LINE
  5
84
100
AcDbEntity
  8
0
  6
BYBLOCK
 62
     0
100
AcDbLine
 10
40.479385
 20
36.325
 30
0.0
 11
40.479385
 21
38.125
 31
0.0
  0
LINE
  5
85
100
AcDbEntity
  8
0
  6
BYBLOCK
 62
     0
100
AcDbLine
 10
40.479385
 20
38.125
 30
0.0
 11
42.279385
 21
38.125
 31
0.0
  0
SOLID
  5
86
100
AcDbEntity
  8
0
  6
BYBLOCK
 62
     0
100
AcDbTrace
 10
40.179385
 20
31.725
 30
0.0
 11
40.779385
 21
31.725
 31
0.0
 12
40.479385
 22
33.525
 32
0.0
 13
40.479385
 23
33.525
 33
0.0
  0
SOLID
  5
87
100
AcDbEntity
  8
0
  6
BYBLOCK
 62
     0
100
AcDbTrace
 10
40.179385
 20
36.325
 30
0.0
 11
40.779385
 21
36.325
 31
0.0
 12
40.479385
 22
34.525
 32
0.0
 13
40.479385
 23
34.525
 33
0.0
  0
MTEXT
  5
88
100
AcDbEntity
  8
0
  6
BYBLOCK
 62
     0
100
AcDbMText
 10
45.279385
 20
38.125
 30
0.0
 40
1.8
 41
0.0
 71
     5
 72
     1
  1
\A1;1.00
  0
POINT
  5
89
100
AcDbEntity
  8
DEFPOINTS
  6
BYBLOCK
 62
     0
100
AcDbPoint
 10
37.950953
 20
33.525
 30
0.0
  0
POINT
  5
8A
100
AcDbEntity
  8
DEFPOINTS
  6
BYBLOCK
 62
     0
100
AcDbPoint
 10
37.950953
 20
34.525
 30
0.0
  0
POINT
  5
8B
100
AcDbEntity
  8
DEFPOINTS
  6
BYBLOCK
 62
     0
100
AcDbPoint
 10
40.479385
 20
34.525
 30
0.0
  0
ENDBLK
  5
8C
100
AcDbEntity
  8
0
100
AcDbBlockEnd
  0
BLOCK
  5
8F
100
AcDbEntity
  8
0
100
AcDbBlockBegin
  2
*D3
 70
     1
 10
0.0
 20
0.0
 30
0.0
  3
*D3
  1

  0
LINE
  5
90
100
AcDbEntity
  8
0
  6
BYBLOCK
 62
     0
100
AcDbLine
 10
7.950953
 20
25.330988
 30
0.0
 11
7.950953
 21
22.079865
 31
0.0
  0
LINE
  5
91
100
AcDbEntity
  8
0
  6
BYBLOCK
 62
     0
100
AcDbLine
 10
15.936374
 20
25.575902
 30
0.0
 11
15.936374
 21
22.079865
 31
0.0
  0
LINE
  5
92
100
AcDbEntity
  8
0
  6
BYBLOCK
 62
     0
100
AcDbLine
 10
6.150953
 20
23.879865
 30
0.0
 11
4.350953
 21
23.879865
 31
0.0
  0
LINE
  5
93
100
AcDbEntity
  8
0
  6
BYBLOCK
 62
     0
100
AcDbLine
 10
17.736374
 20
23.879865
 30
0.0
 11
19.536374
 21
23.879865
 31
0.0
  0
SOLID
  5
94
100
AcDbEntity
  8
0
  6
BYBLOCK
 62
     0
100
AcDbTrace
 10
6.150953
 20
24.179865
 30
0.0
 11
6.150953
 21
23.579865
 31
0.0
 12
7.950953
 22
23.879865
 32
0.0
 13
7.950953
 23
23.879865
 33
0.0
  0
SOLID
  5
95
100
AcDbEntity
  8
0
  6
BYBLOCK
 62
     0
100
AcDbTrace
 10
17.736374
 20
24.179865
 30
0.0
 11
17.736374
 21
23.579865
 31
0.0
 12
15.936374
 22
23.879865
 32
0.0
 13
15.936374
 23
23.879865
 33
0.0
  0
MTEXT
  5
96
100
AcDbEntity
  8
0
  6
BYBLOCK
 62
     0
100
AcDbMText
 10
11.943664
 20
23.879865
 30
0.0
 40
1.8
 41
0.0
 71
     5
 72
     1
  1
\A1;8.00
  0
POINT
  5
97
100
AcDbEntity
  8
DEFPOINTS
  6
BYBLOCK
 62
     0
100
AcDbPoint
 10
7.950953
 20
25.955988
 30
0.0
  0
POINT
  5
98
100
AcDbEntity
  8
DEFPOINTS
  6
BYBLOCK
 62
     0
100
AcDbPoint
 10
15.936374
 20
26.200902
 30
0.0
  0
POINT
  5
99
100
AcDbEntity
  8
DEFPOINTS
  6
BYBLOCK
 62
     0
100
AcDbPoint
 10
15.936374
 20
23.879865
 30
0.0
  0
ENDBLK
  5
9A
100
AcDbEntity
  8
0
100
AcDbBlockEnd
  0
BLOCK
  5
9D
100
AcDbEntity
  8
0
100
AcDbBlockBegin
  2
*D4
 70
     1
 10
0.0
 20
0.0
 30
0.0
  3
*D4
  1

  0
LINE
  5
9E
100
AcDbEntity
  8
0
  6
BYBLOCK
 62
     0
100
AcDbLine
 10
15.936374
 20
24.950902
 30
0.0
 11
15.936374
 21
22.071
 31
0.0
  0
LINE
  5
9F
100
AcDbEntity
  8
0
  6
BYBLOCK
 62
     0
100
AcDbLine
 10
21.949707
 20
25.330988
 30
0.0
 11
21.949707
 21
22.071
 31
0.0
  0
LINE
  5
A0
100
AcDbEntity
  8
0
  6
BYBLOCK
 62
     0
100
AcDbLine
 10
17.736374
 20
23.871
 30
0.0
 11
20.149707
 21
23.871
 31
0.0
  0
LINE
  5
A1
100
AcDbEntity
  8
0
  6
BYBLOCK
 62
     0
100
AcDbLine
 10
21.949707
 20
23.871
 30
0.0
 11
23.749707
 21
23.871
 31
0.0
  0
SOLID
  5
A2
100
AcDbEntity
  8
0
  6
BYBLOCK
 62
     0
100
AcDbTrace
 10
17.736374
 20
24.171
 30
0.0
 11
17.736374
 21
23.571
 31
0.0
 12
15.936374
 22
23.871
 32
0.0
 13
15.936374
 23
23.871
 33
0.0
  0
SOLID
  5
A3
100
AcDbEntity
  8
0
  6
BYBLOCK
 62
     0
100
AcDbTrace
 10
20.149707
 20
24.171
 30
0.0
 11
20.149707
 21
23.571
 31
0.0
 12
21.949707
 22
23.871
 32
0.0
 13
21.949707
 23
23.871
 33
0.0
  0
MTEXT
  5
A4
100
AcDbEntity
  8
0
  6
BYBLOCK
 62
     0
100
AcDbMText
 10
26.899707
 20
23.871
 30
0.0
 40
1.8
 41
0.0
 71
     5
 72
     1
  1
\A1;6.01
  0
POINT
  5
A5
100
AcDbEntity
  8
DEFPOINTS
  6
BYBLOCK
 62
     0
100
AcDbPoint
 10
15.936374
 20
25.575902
 30
0.0
  0
POINT
  5
A6
100
AcDbEntity
  8
DEFPOINTS
  6
BYBLOCK
 62
     0
100
AcDbPoint
 10
21.949707
 20
25.955988
 30
0.0
  0
POINT
  5
A7
100
AcDbEntity
  8
DEFPOINTS
  6
BYBLOCK
 62
     0
100
AcDbPoint
 10
21.949707
 20
23.871
 30
0.0
  0
ENDBLK
  5
A8
100
AcDbEntity
  8
0
100
AcDbBlockEnd
  0
BLOCK
  5
C8
100
AcDbEntity
  8
0
100
AcDbBlockBegin
  2
*D5
 70
     1
 10
0.0
 20
0.0
 30
0.0
  3
*D5
  1

  0
LINE
  5
C9
100
AcDbEntity
  8
0
  6
BYBLOCK
 62
     0
100
AcDbLine
 10
7.950953
 20
29.080988
 30
0.0
 11
7.950953
 21
31.953113
 31
0.0
  0
LINE
  5
CA
100
AcDbEntity
  8
0
  6
BYBLOCK
 62
     0
100
AcDbLine
 10
17.950953
 20
31.830988
 30
0.0
 11
17.950953
 21
28.353113
 31
0.0
  0
LINE
  5
CB
100
AcDbEntity
  8
0
  6
BYBLOCK
 62
     0
100
AcDbLine
 10
6.150953
 20
30.153113
 30
0.0
 11
4.350953
 21
30.153113
 31
0.0
  0
LINE
  5
CC
100
AcDbEntity
  8
0
  6
BYBLOCK
 62
     0
100
AcDbLine
 10
19.750953
 20
30.153113
 30
0.0
 11
21.550953
 21
30.153113
 31
0.0
  0
SOLID
  5
CD
100
AcDbEntity
  8
0
  6
BYBLOCK
 62
     0
100
AcDbTrace
 10
6.150953
 20
30.453113
 30
0.0
 11
6.150953
 21
29.853113
 31
0.0
 12
7.950953
 22
30.153113
 32
0.0
 13
7.950953
 23
30.153113
 33
0.0
  0
SOLID
  5
CE
100
AcDbEntity
  8
0
  6
BYBLOCK
 62
     0
100
AcDbTrace
 10
19.750953
 20
30.453113
 30
0.0
 11
19.750953
 21
29.853113
 31
0.0
 12
17.950953
 22
30.153113
 32
0.0
 13
17.950953
 23
30.153113
 33
0.0
  0
MTEXT
  5
CF
100
AcDbEntity
  8
0
  6
BYBLOCK
 62
     0
100
AcDbMText
 10
12.950953
 20
30.153113
 30
0.0
 40
1.8
 41
0.0
 71
     5
 72
     1
  1
\A1;10.00
  0
POINT
  5
D0
100
AcDbEntity
  8
DEFPOINTS
  6
BYBLOCK
 62
     0
100
AcDbPoint
 10
7.950953
 20
28.455988
 30
0.0
  0
POINT
  5
D1
100
AcDbEntity
  8
DEFPOINTS
  6
BYBLOCK
 62
     0
100
AcDbPoint
 10
17.950953
 20
32.455988
 30
0.0
  0
POINT
  5
D2
100
AcDbEntity
  8
DEFPOINTS
  6
BYBLOCK
 62
     0
100
AcDbPoint
 10
17.950953
 20
30.153113
 30
0.0
  0
ENDBLK
  5
D3
100
AcDbEntity
  8
0
100
AcDbBlockEnd
  0
BLOCK
  5
116
100
AcDbEntity
  8
0
100
AcDbBlockBegin
  2
*D6
 70
     1
 10
0.0
 20
0.0
 30
0.0
  3
*D6
  1

  0
LINE
  5
117
100
AcDbEntity
  8
0
  6
BYBLOCK
 62
     0
100
AcDbLine
 10
72.395452
 20
22.769143
 30
0.0
 11
85.629477
 21
22.769143
 31
0.0
  0
LINE
  5
118
100
AcDbEntity
  8
0
  6
BYBLOCK
 62
     0
100
AcDbLine
 10
72.96688
 20
20.769143
 30
0.0
 11
85.629477
 21
20.769143
 31
0.0
  0
LINE
  5
119
100
AcDbEntity
  8
0
  6
BYBLOCK
 62
     0
100
AcDbLine
 10
83.829477
 20
24.569143
 30
0.0
 11
83.829477
 21
26.369143
 31
0.0
  0
LINE
  5
11A
100
AcDbEntity
  8
0
  6
BYBLOCK
 62
     0
100
AcDbLine
 10
83.829477
 20
18.969143
 30
0.0
 11
83.829477
 21
17.169143
 31
0.0
  0
LINE
  5
11B
100
AcDbEntity
  8
0
  6
BYBLOCK
 62
     0
100
AcDbLine
 10
83.829477
 20
17.169143
 30
0.0
 11
82.029477
 21
17.169143
 31
0.0
  0
SOLID
  5
11C
100
AcDbEntity
  8
0
  6
BYBLOCK
 62
     0
100
AcDbTrace
 10
83.529477
 20
24.569143
 30
0.0
 11
84.129477
 21
24.569143
 31
0.0
 12
83.829477
 22
22.769143
 32
0.0
 13
83.829477
 23
22.769143
 33
0.0
  0
SOLID
  5
11D
100
AcDbEntity
  8
0
  6
BYBLOCK
 62
     0
100
AcDbTrace
 10
83.529477
 20
18.969143
 30
0.0
 11
84.129477
 21
18.969143
 31
0.0
 12
83.829477
 22
20.769143
 32
0.0
 13
83.829477
 23
20.769143
 33
0.0
  0
MTEXT
  5
11E
100
AcDbEntity
  8
0
  6
BYBLOCK
 62
     0
100
AcDbMText
 10
78.729477
 20
17.169143
 30
0.0
 40
1.8
 41
0.0
 71
     5
 72
     1
  1
\A1;2.00
  0
POINT
  5
11F
100
AcDbEntity
  8
DEFPOINTS
  6
BYBLOCK
 62
     0
100
AcDbPoint
 10
71.770452
 20
22.769143
 30
0.0
  0
POINT
  5
120
100
AcDbEntity
  8
DEFPOINTS
  6
BYBLOCK
 62
     0
100
AcDbPoint
 10
72.34188
 20
20.769143
 30
0.0
  0
POINT
  5
121
100
AcDbEntity
  8
DEFPOINTS
  6
BYBLOCK
 62
     0
100
AcDbPoint
 10
83.829477
 20
20.769143
 30
0.0
  0
ENDBLK
  5
122
100
AcDbEntity
  8
0
100
AcDbBlockEnd
  0
BLOCK
  5
125
100
AcDbEntity
  8
0
100
AcDbBlockBegin
  2
*D7
 70
     1
 10
0.0
 20
0.0
 30
0.0
  3
*D7
  1

  0
LINE
  5
126
100
AcDbEntity
  8
0
  6
BYBLOCK
 62
     0
100
AcDbLine
 10
72.395452
 20
22.769143
 30
0.0
 11
90.676628
 21
22.769143
 31
0.0
  0
LINE
  5
127
100
AcDbEntity
  8
0
  6
BYBLOCK
 62
     0
100
AcDbLine
 10
70.96688
 20
27.769143
 30
0.0
 11
90.676628
 21
27.769143
 31
0.0
  0
LINE
  5
128
100
AcDbEntity
  8
0
  6
BYBLOCK
 62
     0
100
AcDbLine
 10
88.876628
 20
20.969143
 30
0.0
 11
88.876628
 21
19.169143
 31
0.0
  0
LINE
  5
129
100
AcDbEntity
  8
0
  6
BYBLOCK
 62
     0
100
AcDbLine
 10
88.876628
 20
29.569143
 30
0.0
 11
88.876628
 21
31.369143
 31
0.0
  0
SOLID
  5
12A
100
AcDbEntity
  8
0
  6
BYBLOCK
 62
     0
100
AcDbTrace
 10
88.576628
 20
20.969143
 30
0.0
 11
89.176628
 21
20.969143
 31
0.0
 12
88.876628
 22
22.769143
 32
0.0
 13
88.876628
 23
22.769143
 33
0.0
  0
SOLID
  5
12B
100
AcDbEntity
  8
0
  6
BYBLOCK
 62
     0
100
AcDbTrace
 10
88.576628
 20
29.569143
 30
0.0
 11
89.176628
 21
29.569143
 31
0.0
 12
88.876628
 22
27.769143
 32
0.0
 13
88.876628
 23
27.769143
 33
0.0
  0
MTEXT
  5
12C
100
AcDbEntity
  8
0
  6
BYBLOCK
 62
     0
100
AcDbMText
 10
88.876628
 20
25.269143
 30
0.0
 40
1.8
 41
0.0
 71
     5
 72
     1
  1
\A1;5.00
  0
POINT
  5
12D
100
AcDbEntity
  8
DEFPOINTS
  6
BYBLOCK
 62
     0
100
AcDbPoint
 10
71.770452
 20
22.769143
 30
0.0
  0
POINT
  5
12E
100
AcDbEntity
  8
DEFPOINTS
  6
BYBLOCK
 62
     0
100
AcDbPoint
 10
70.34188
 20
27.769143
 30
0.0
  0
POINT
  5
12F
100
AcDbEntity
  8
DEFPOINTS
  6
BYBLOCK
 62
     0
100
AcDbPoint
 10
88.876628
 20
27.769143
 30
0.0
  0
ENDBLK
  5
130
100
AcDbEntity
  8
0
100
AcDbBlockEnd
  0
BLOCK
  5
133
100
AcDbEntity
  8
0
100
AcDbBlockBegin
  2
*D8
 70
     1
 10
0.0
 20
0.0
 30
0.0
  3
*D8
  1

  0
LINE
  5
134
100
AcDbEntity
  8
0
  6
BYBLOCK
 62
     0
100
AcDbLine
 10
54.288309
 20
22.769143
 30
0.0
 11
48.691717
 21
22.769143
 31
0.0
  0
LINE
  5
135
100
AcDbEntity
  8
0
  6
BYBLOCK
 62
     0
100
AcDbLine
 10
55.71688
 20
27.769143
 30
0.0
 11
48.691717
 21
27.769143
 31
0.0
  0
LINE
  5
136
100
AcDbEntity
  8
0
  6
BYBLOCK
 62
     0
100
AcDbLine
 10
50.491717
 20
20.969143
 30
0.0
 11
50.491717
 21
19.169143
 31
0.0
  0
LINE
  5
137
100
AcDbEntity
  8
0
  6
BYBLOCK
 62
     0
100
AcDbLine
 10
50.491717
 20
29.569143
 30
0.0
 11
50.491717
 21
31.369143
 31
0.0
  0
SOLID
  5
138
100
AcDbEntity
  8
0
  6
BYBLOCK
 62
     0
100
AcDbTrace
 10
50.191717
 20
20.969143
 30
0.0
 11
50.791717
 21
20.969143
 31
0.0
 12
50.491717
 22
22.769143
 32
0.0
 13
50.491717
 23
22.769143
 33
0.0
  0
SOLID
  5
139
100
AcDbEntity
  8
0
  6
BYBLOCK
 62
     0
100
AcDbTrace
 10
50.191717
 20
29.569143
 30
0.0
 11
50.791717
 21
29.569143
 31
0.0
 12
50.491717
 22
27.769143
 32
0.0
 13
50.491717
 23
27.769143
 33
0.0
  0
MTEXT
  5
13A
100
AcDbEntity
  8
0
  6
BYBLOCK
 62
     0
100
AcDbMText
 10
50.491717
 20
25.269143
 30
0.0
 40
1.8
 41
0.0
 71
     5
 72
     1
  1
\A1;5.00
  0
POINT
  5
13B
100
AcDbEntity
  8
DEFPOINTS
  6
BYBLOCK
 62
     0
100
AcDbPoint
 10
54.913309
 20
22.769143
 30
0.0
  0
POINT
  5
13C
100
AcDbEntity
  8
DEFPOINTS
  6
BYBLOCK
 62
     0
100
AcDbPoint
 10
56.34188
 20
27.769143
 30
0.0
  0
POINT
  5
13D
100
AcDbEntity
  8
DEFPOINTS
  6
BYBLOCK
 62
     0
100
AcDbPoint
 10
50.491717
 20
27.769143
 30
0.0
  0
ENDBLK
  5
13E
100
AcDbEntity
  8
0
100
AcDbBlockEnd
  0
BLOCK
  5
141
100
AcDbEntity
  8
0
100
AcDbBlockBegin
  2
*D9
 70
     1
 10
0.0
 20
0.0
 30
0.0
  3
*D9
  1

  0
LINE
  5
142
100
AcDbEntity
  8
0
  6
BYBLOCK
 62
     0
100
AcDbLine
 10
56.34188
 20
28.394143
 30
0.0
 11
56.34188
 21
32.327585
 31
0.0
  0
LINE
  5
143
100
AcDbEntity
  8
0
  6
BYBLOCK
 62
     0
100
AcDbLine
 10
70.34188
 20
28.394143
 30
0.0
 11
70.34188
 21
32.327585
 31
0.0
  0
LINE
  5
144
100
AcDbEntity
  8
0
  6
BYBLOCK
 62
     0
100
AcDbLine
 10
58.14188
 20
30.527585
 30
0.0
 11
59.44188
 21
30.527585
 31
0.0
  0
LINE
  5
145
100
AcDbEntity
  8
0
  6
BYBLOCK
 62
     0
100
AcDbLine
 10
68.54188
 20
30.527585
 30
0.0
 11
67.24188
 21
30.527585
 31
0.0
  0
SOLID
  5
146
100
AcDbEntity
  8
0
  6
BYBLOCK
 62
     0
100
AcDbTrace
 10
58.14188
 20
30.827585
 30
0.0
 11
58.14188
 21
30.227585
 31
0.0
 12
56.34188
 22
30.527585
 32
0.0
 13
56.34188
 23
30.527585
 33
0.0
  0
SOLID
  5
147
100
AcDbEntity
  8
0
  6
BYBLOCK
 62
     0
100
AcDbTrace
 10
68.54188
 20
30.827585
 30
0.0
 11
68.54188
 21
30.227585
 31
0.0
 12
70.34188
 22
30.527585
 32
0.0
 13
70.34188
 23
30.527585
 33
0.0
  0
MTEXT
  5
148
100
AcDbEntity
  8
0
  6
BYBLOCK
 62
     0
100
AcDbMText
 10
63.34188
 20
30.527585
 30
0.0
 40
1.8
 41
0.0
 71
     5
 72
     1
  1
\A1;14.00
  0
POINT
  5
149
100
AcDbEntity
  8
DEFPOINTS
  6
BYBLOCK
 62
     0
100
AcDbPoint
 10
56.34188
 20
27.769143
 30
0.0
  0
POINT
  5
14A
100
AcDbEntity
  8
DEFPOINTS
  6
BYBLOCK
 62
     0
100
AcDbPoint
 10
70.34188
 20
27.769143
 30
0.0
  0
POINT
  5
14B
100
AcDbEntity
  8
DEFPOINTS
  6
BYBLOCK
 62
     0
100
AcDbPoint
 10
70.34188
 20
30.527585
 30
0.0
  0
ENDBLK
  5
14C
100
AcDbEntity
  8
0
100
AcDbBlockEnd
  0
BLOCK
  5
14F
100
AcDbEntity
  8
0
100
AcDbBlockBegin
  2
*D10
 70
     1
 10
0.0
 20
0.0
 30
0.0
  3
*D10
  1

  0
LINE
  5
150
100
AcDbEntity
  8
0
  6
BYBLOCK
 62
     0
100
AcDbLine
 10
54.34188
 20
20.144143
 30
0.0
 11
54.34188
 21
14.537559
 31
0.0
  0
LINE
  5
151
100
AcDbEntity
  8
0
  6
BYBLOCK
 62
     0
100
AcDbLine
 10
72.34188
 20
20.144143
 30
0.0
 11
72.34188
 21
14.537559
 31
0.0
  0
LINE
  5
152
100
AcDbEntity
  8
0
  6
BYBLOCK
 62
     0
100
AcDbLine
 10
56.14188
 20
16.337559
 30
0.0
 11
59.44188
 21
16.337559
 31
0.0
  0
LINE
  5
153
100
AcDbEntity
  8
0
  6
BYBLOCK
 62
     0
100
AcDbLine
 10
70.54188
 20
16.337559
 30
0.0
 11
67.24188
 21
16.337559
 31
0.0
  0
SOLID
  5
154
100
AcDbEntity
  8
0
  6
BYBLOCK
 62
     0
100
AcDbTrace
 10
56.14188
 20
16.637559
 30
0.0
 11
56.14188
 21
16.037559
 31
0.0
 12
54.34188
 22
16.337559
 32
0.0
 13
54.34188
 23
16.337559
 33
0.0
  0
SOLID
  5
155
100
AcDbEntity
  8
0
  6
BYBLOCK
 62
     0
100
AcDbTrace
 10
70.54188
 20
16.637559
 30
0.0
 11
70.54188
 21
16.037559
 31
0.0
 12
72.34188
 22
16.337559
 32
0.0
 13
72.34188
 23
16.337559
 33
0.0
  0
MTEXT
  5
156
100
AcDbEntity
  8
0
  6
BYBLOCK
 62
     0
100
AcDbMText
 10
63.34188
 20
16.337559
 30
0.0
 40
1.8
 41
0.0
 71
     5
 72
     1
  1
\A1;18.00
  0
POINT
  5
157
100
AcDbEntity
  8
DEFPOINTS
  6
BYBLOCK
 62
     0
100
AcDbPoint
 10
54.34188
 20
20.769143
 30
0.0
  0
POINT
  5
158
100
AcDbEntity
  8
DEFPOINTS
  6
BYBLOCK
 62
     0
100
AcDbPoint
 10
72.34188
 20
20.769143
 30
0.0
  0
POINT
  5
159
100
AcDbEntity
  8
DEFPOINTS
  6
BYBLOCK
 62
     0
100
AcDbPoint
 10
72.34188
 20
16.337559
 30
0.0
  0
ENDBLK
  5
15A
100
AcDbEntity
  8
0
100
AcDbBlockEnd
  0
BLOCK
  5
198
100
AcDbEntity
  8
0
100
AcDbBlockBegin
  2
*D11
 70
     1
 10
0.0
 20
0.0
 30
0.0
  3
*D11
  1

  0
LINE
  5
199
100
AcDbEntity
  8
0
  6
BYBLOCK
 62
     0
100
AcDbLine
 10
93.132123
 20
16.219881
 30
0.0
 11
93.132123
 21
24.218583
 31
0.0
  0
LINE
  5
19A
100
AcDbEntity
  8
0
  6
BYBLOCK
 62
     0
100
AcDbLine
 10
102.064132
 20
16.828164
 30
0.0
 11
102.064132
 21
24.218583
 31
0.0
  0
LINE
  5
19B
100
AcDbEntity
  8
0
  6
BYBLOCK
 62
     0
100
AcDbLine
 10
94.932123
 20
22.418583
 30
0.0
 11
96.098127
 21
22.418583
 31
0.0
  0
LINE
  5
19C
100
AcDbEntity
  8
0
  6
BYBLOCK
 62
     0
100
AcDbLine
 10
100.264132
 20
22.418583
 30
0.0
 11
99.098127
 21
22.418583
 31
0.0
  0
SOLID
  5
19D
100
AcDbEntity
  8
0
  6
BYBLOCK
 62
     0
100
AcDbTrace
 10
94.932123
 20
22.718583
 30
0.0
 11
94.932123
 21
22.118583
 31
0.0
 12
93.132123
 22
22.418583
 32
0.0
 13
93.132123
 23
22.418583
 33
0.0
  0
SOLID
  5
19E
100
AcDbEntity
  8
0
  6
BYBLOCK
 62
     0
100
AcDbTrace
 10
100.264132
 20
22.718583
 30
0.0
 11
100.264132
 21
22.118583
 31
0.0
 12
102.064132
 22
22.418583
 32
0.0
 13
102.064132
 23
22.418583
 33
0.0
  0
MTEXT
  5
19F
100
AcDbEntity
  8
0
  6
BYBLOCK
 62
     0
100
AcDbMText
 10
97.598127
 20
22.418583
 30
0.0
 40
1.8
 41
0.0
 71
     5
 72
     1
  1
\A1;9
  0
POINT
  5
1A0
100
AcDbEntity
  8
DEFPOINTS
  6
BYBLOCK
 62
     0
100
AcDbPoint
 10
93.132123
 20
15.594881
 30
0.0
  0
POINT
  5
1A1
100
AcDbEntity
  8
DEFPOINTS
  6
BYBLOCK
 62
     0
100
AcDbPoint
 10
102.064132
 20
16.203164
 30
0.0
  0
POINT
  5
1A2
100
AcDbEntity
  8
DEFPOINTS
  6
BYBLOCK
 62
     0
100
AcDbPoint
 10
102.064132
 20
22.418583
 30
0.0
  0
ENDBLK
  5
1A3
100
AcDbEntity
  8
0
100
AcDbBlockEnd
  0
BLOCK
  5
1A6
100
AcDbEntity
  8
0
100
AcDbBlockBegin
  2
*D12
 70
     1
 10
0.0
 20
0.0
 30
0.0
  3
*D12
  1

  0
LINE
  5
1A7
100
AcDbEntity
  8
0
  6
BYBLOCK
 62
     0
100
AcDbLine
 10
98.632123
 20
11.469881
 30
0.0
 11
98.632123
 21
8.10836
 31
0.0
  0
LINE
  5
1A8
100
AcDbEntity
  8
0
  6
BYBLOCK
 62
     0
100
AcDbLine
 10
93.145279
 20
15.313732
 30
0.0
 11
93.145279
 21
8.10836
 31
0.0
  0
LINE
  5
1A9
100
AcDbEntity
  8
0
  6
BYBLOCK
 62
     0
100
AcDbLine
 10
100.432123
 20
9.90836
 30
0.0
 11
102.232123
 21
9.90836
 31
0.0
  0
LINE
  5
1AA
100
AcDbEntity
  8
0
  6
BYBLOCK
 62
     0
100
AcDbLine
 10
91.345279
 20
9.90836
 30
0.0
 11
89.545279
 21
9.90836
 31
0.0
  0
SOLID
  5
1AB
100
AcDbEntity
  8
0
  6
BYBLOCK
 62
     0
100
AcDbTrace
 10
100.432123
 20
10.20836
 30
0.0
 11
100.432123
 21
9.60836
 31
0.0
 12
98.632123
 22
9.90836
 32
0.0
 13
98.632123
 23
9.90836
 33
0.0
  0
SOLID
  5
1AC
100
AcDbEntity
  8
0
  6
BYBLOCK
 62
     0
100
AcDbTrace
 10
91.345279
 20
10.20836
 30
0.0
 11
91.345279
 21
9.60836
 31
0.0
 12
93.145279
 22
9.90836
 32
0.0
 13
93.145279
 23
9.90836
 33
0.0
  0
MTEXT
  5
1AD
100
AcDbEntity
  8
0
  6
BYBLOCK
 62
     0
100
AcDbMText
 10
95.888701
 20
9.90836
 30
0.0
 40
1.8
 41
0.0
 71
     5
 72
     1
  1
\A1;5.5
  0
POINT
  5
1AE
100
AcDbEntity
  8
DEFPOINTS
  6
BYBLOCK
 62
     0
100
AcDbPoint
 10
98.632123
 20
12.094881
 30
0.0
  0
POINT
  5
1AF
100
AcDbEntity
  8
DEFPOINTS
  6
BYBLOCK
 62
     0
100
AcDbPoint
 10
93.145279
 20
15.938732
 30
0.0
  0
POINT
  5
1B0
100
AcDbEntity
  8
DEFPOINTS
  6
BYBLOCK
 62
     0
100
AcDbPoint
 10
93.145279
 20
9.90836
 30
0.0
  0
ENDBLK
  5
1B1
100
AcDbEntity
  8
0
100
AcDbBlockEnd
  0
BLOCK
  5
1B4
100
AcDbEntity
  8
0
100
AcDbBlockBegin
  2
*D13
 70
     1
 10
0.0
 20
0.0
 30
0.0
  3
*D13
  1

  0
LINE
  5
1B5
100
AcDbEntity
  8
0
  6
BYBLOCK
 62
     0
100
AcDbLine
 10
98.632123
 20
11.469881
 30
0.0
 11
98.632123
 21
6.204615
 31
0.0
  0
LINE
  5
1B6
100
AcDbEntity
  8
0
  6
BYBLOCK
 62
     0
100
AcDbLine
 10
102.132123
 20
14.969881
 30
0.0
 11
102.132123
 21
6.204615
 31
0.0
  0
LINE
  5
1B7
100
AcDbEntity
  8
0
  6
BYBLOCK
 62
     0
100
AcDbLine
 10
96.832123
 20
8.004615
 30
0.0
 11
95.032123
 21
8.004615
 31
0.0
  0
LINE
  5
1B8
100
AcDbEntity
  8
0
  6
BYBLOCK
 62
     0
100
AcDbLine
 10
103.932123
 20
8.004615
 30
0.0
 11
105.732123
 21
8.004615
 31
0.0
  0
SOLID
  5
1B9
100
AcDbEntity
  8
0
  6
BYBLOCK
 62
     0
100
AcDbTrace
 10
96.832123
 20
8.304615
 30
0.0
 11
96.832123
 21
7.704615
 31
0.0
 12
98.632123
 22
8.004615
 32
0.0
 13
98.632123
 23
8.004615
 33
0.0
  0
SOLID
  5
1BA
100
AcDbEntity
  8
0
  6
BYBLOCK
 62
     0
100
AcDbTrace
 10
103.932123
 20
8.304615
 30
0.0
 11
103.932123
 21
7.704615
 31
0.0
 12
102.132123
 22
8.004615
 32
0.0
 13
102.132123
 23
8.004615
 33
0.0
  0
MTEXT
  5
1BB
100
AcDbEntity
  8
0
  6
BYBLOCK
 62
     0
100
AcDbMText
 10
108.432123
 20
8.004615
 30
0.0
 40
1.8
 41
0.0
 71
     5
 72
     1
  1
\A1;3.5
  0
POINT
  5
1BC
100
AcDbEntity
  8
DEFPOINTS
  6
BYBLOCK
 62
     0
100
AcDbPoint
 10
98.632123
 20
12.094881
 30
0.0
  0
POINT
  5
1BD
100
AcDbEntity
  8
DEFPOINTS
  6
BYBLOCK
 62
     0
100
AcDbPoint
 10
102.132123
 20
15.594881
 30
0.0
  0
POINT
  5
1BE
100
AcDbEntity
  8
DEFPOINTS
  6
BYBLOCK
 62
     0
100
AcDbPoint
 10
102.132123
 20
8.004615
 30
0.0
  0
ENDBLK
  5
1BF
100
AcDbEntity
  8
0
100
AcDbBlockEnd
  0
BLOCK
  5
201
100
AcDbEntity
  8
0
100
AcDbBlockBegin
  2
*D14
 70
     1
 10
0.0
 20
0.0
 30
0.0
  3
*D14
  1

  0
LINE
  5
202
100
AcDbEntity
  8
0
  6
BYBLOCK
 62
     0
100
AcDbLine
 10
8.086065
 20
46.701165
 30
0.0
 11
8.086065
 21
41.087014
 31
0.0
  0
LINE
  5
203
100
AcDbEntity
  8
0
  6
BYBLOCK
 62
     0
100
AcDbLine
 10
56.086065
 20
46.701165
 30
0.0
 11
56.086065
 21
41.087014
 31
0.0
  0
LINE
  5
204
100
AcDbEntity
  8
0
  6
BYBLOCK
 62
     0
100
AcDbLine
 10
9.886065
 20
42.887014
 30
0.0
 11
29.686065
 21
42.887014
 31
0.0
  0
LINE
  5
205
100
AcDbEntity
  8
0
  6
BYBLOCK
 62
     0
100
AcDbLine
 10
54.286065
 20
42.887014
 30
0.0
 11
34.486065
 21
42.887014
 31
0.0
  0
SOLID
  5
206
100
AcDbEntity
  8
0
  6
BYBLOCK
 62
     0
100
AcDbTrace
 10
9.886065
 20
43.187014
 30
0.0
 11
9.886065
 21
42.587014
 31
0.0
 12
8.086065
 22
42.887014
 32
0.0
 13
8.086065
 23
42.887014
 33
0.0
  0
SOLID
  5
207
100
AcDbEntity
  8
0
  6
BYBLOCK
 62
     0
100
AcDbTrace
 10
54.286065
 20
43.187014
 30
0.0
 11
54.286065
 21
42.587014
 31
0.0
 12
56.086065
 22
42.887014
 32
0.0
 13
56.086065
 23
42.887014
 33
0.0
  0
MTEXT
  5
208
100
AcDbEntity
  8
0
  6
BYBLOCK
 62
     0
100
AcDbMText
 10
32.086065
 20
42.887014
 30
0.0
 40
1.8
 41
0.0
 71
     5
 72
     1
  1
\A1;48
  0
POINT
  5
209
100
AcDbEntity
  8
DEFPOINTS
  6
BYBLOCK
 62
     0
100
AcDbPoint
 10
8.086065
 20
47.326165
 30
0.0
  0
POINT
  5
20A
100
AcDbEntity
  8
DEFPOINTS
  6
BYBLOCK
 62
     0
100
AcDbPoint
 10
56.086065
 20
47.326165
 30
0.0
  0
POINT
  5
20B
100
AcDbEntity
  8
DEFPOINTS
  6
BYBLOCK
 62
     0
100
AcDbPoint
 10
56.086065
 20
42.887014
 30
0.0
  0
ENDBLK
  5
20C
100
AcDbEntity
  8
0
100
AcDbBlockEnd
  0
BLOCK
  5
20F
100
AcDbEntity
  8
0
100
AcDbBlockBegin
  2
*D15
 70
     1
 10
0.0
 20
0.0
 30
0.0
  3
*D15
  1

  0
LINE
  5
210
100
AcDbEntity
  8
0
  6
BYBLOCK
 62
     0
100
AcDbLine
 10
56.711065
 20
47.326165
 30
0.0
 11
65.41394
 21
47.326165
 31
0.0
  0
LINE
  5
211
100
AcDbEntity
  8
0
  6
BYBLOCK
 62
     0
100
AcDbLine
 10
56.711065
 20
60.326165
 30
0.0
 11
65.41394
 21
60.326165
 31
0.0
  0
LINE
  5
212
100
AcDbEntity
  8
0
  6
BYBLOCK
 62
     0
100
AcDbLine
 10
63.61394
 20
49.126165
 30
0.0
 11
63.61394
 21
52.026165
 31
0.0
  0
LINE
  5
213
100
AcDbEntity
  8
0
  6
BYBLOCK
 62
     0
100
AcDbLine
 10
63.61394
 20
58.526165
 30
0.0
 11
63.61394
 21
55.626165
 31
0.0
  0
SOLID
  5
214
100
AcDbEntity
  8
0
  6
BYBLOCK
 62
     0
100
AcDbTrace
 10
63.31394
 20
49.126165
 30
0.0
 11
63.91394
 21
49.126165
 31
0.0
 12
63.61394
 22
47.326165
 32
0.0
 13
63.61394
 23
47.326165
 33
0.0
  0
SOLID
  5
215
100
AcDbEntity
  8
0
  6
BYBLOCK
 62
     0
100
AcDbTrace
 10
63.31394
 20
58.526165
 30
0.0
 11
63.91394
 21
58.526165
 31
0.0
 12
63.61394
 22
60.326165
 32
0.0
 13
63.61394
 23
60.326165
 33
0.0
  0
MTEXT
  5
216
100
AcDbEntity
  8
0
  6
BYBLOCK
 62
     0
100
AcDbMText
 10
63.61394
 20
53.826165
 30
0.0
 40
1.8
 41
0.0
 71
     5
 72
     1
  1
\A1;13.00
  0
POINT
  5
217
100
AcDbEntity
  8
DEFPOINTS
  6
BYBLOCK
 62
     0
100
AcDbPoint
 10
56.086065
 20
47.326165
 30
0.0
  0
POINT
  5
218
100
AcDbEntity
  8
DEFPOINTS
  6
BYBLOCK
 62
     0
100
AcDbPoint
 10
56.086065
 20
60.326165
 30
0.0
  0
POINT
  5
219
100
AcDbEntity
  8
DEFPOINTS
  6
BYBLOCK
 62
     0
100
AcDbPoint
 10
63.61394
 20
60.326165
 30
0.0
  0
ENDBLK
  5
21A
100
AcDbEntity
  8
0
100
AcDbBlockEnd
  0
BLOCK
  5
21D
100
AcDbEntity
  8
0
100
AcDbBlockBegin
  2
*D16
 70
     1
 10
0.0
 20
0.0
 30
0.0
  3
*D16
  1

  0
LINE
  5
21E
100
AcDbEntity
  8
0
  6
BYBLOCK
 62
     0
100
AcDbLine
 10
56.711065
 20
70.326165
 30
0.0
 11
65.591821
 21
70.326165
 31
0.0
  0
LINE
  5
21F
100
AcDbEntity
  8
0
  6
BYBLOCK
 62
     0
100
AcDbLine
 10
56.711065
 20
82.326165
 30
0.0
 11
65.591821
 21
82.326165
 31
0.0
  0
LINE
  5
220
100
AcDbEntity
  8
0
  6
BYBLOCK
 62
     0
100
AcDbLine
 10
63.791821
 20
72.126165
 30
0.0
 11
63.791821
 21
74.526165
 31
0.0
  0
LINE
  5
221
100
AcDbEntity
  8
0
  6
BYBLOCK
 62
     0
100
AcDbLine
 10
63.791821
 20
80.526165
 30
0.0
 11
63.791821
 21
78.126165
 31
0.0
  0
SOLID
  5
222
100
AcDbEntity
  8
0
  6
BYBLOCK
 62
     0
100
AcDbTrace
 10
63.491821
 20
72.126165
 30
0.0
 11
64.091821
 21
72.126165
 31
0.0
 12
63.791821
 22
70.326165
 32
0.0
 13
63.791821
 23
70.326165
 33
0.0
  0
SOLID
  5
223
100
AcDbEntity
  8
0
  6
BYBLOCK
 62
     0
100
AcDbTrace
 10
63.491821
 20
80.526165
 30
0.0
 11
64.091821
 21
80.526165
 31
0.0
 12
63.791821
 22
82.326165
 32
0.0
 13
63.791821
 23
82.326165
 33
0.0
  0
MTEXT
  5
224
100
AcDbEntity
  8
0
  6
BYBLOCK
 62
     0
100
AcDbMText
 10
63.791821
 20
76.326165
 30
0.0
 40
1.8
 41
0.0
 71
     5
 72
     1
  1
\A1;12.00
  0
POINT
  5
225
100
AcDbEntity
  8
DEFPOINTS
  6
BYBLOCK
 62
     0
100
AcDbPoint
 10
56.086065
 20
70.326165
 30
0.0
  0
POINT
  5
226
100
AcDbEntity
  8
DEFPOINTS
  6
BYBLOCK
 62
     0
100
AcDbPoint
 10
56.086065
 20
82.326165
 30
0.0
  0
POINT
  5
227
100
AcDbEntity
  8
DEFPOINTS
  6
BYBLOCK
 62
     0
100
AcDbPoint
 10
63.791821
 20
82.326165
 30
0.0
  0
ENDBLK
  5
228
100
AcDbEntity
  8
0
100
AcDbBlockEnd
  0
BLOCK
  5
22D
100
AcDbEntity
  8
0
100
AcDbBlockBegin
  2
*D17
 70
     1
 10
0.0
 20
0.0
 30
0.0
  3
*D17
  1

  0
LINE
  5
22E
100
AcDbEntity
  8
0
  6
BYBLOCK
 62
     0
100
AcDbLine
 10
7.461065
 20
71.076165
 30
0.0
 11
4.768677
 21
71.076165
 31
0.0
  0
LINE
  5
22F
100
AcDbEntity
  8
0
  6
BYBLOCK
 62
     0
100
AcDbLine
 10
7.461065
 20
70.326165
 30
0.0
 11
4.768677
 21
70.326165
 31
0.0
  0
LINE
  5
230
100
AcDbEntity
  8
0
  6
BYBLOCK
 62
     0
100
AcDbLine
 10
6.568677
 20
72.876165
 30
0.0
 11
6.568677
 21
74.676165
 31
0.0
  0
LINE
  5
231
100
AcDbEntity
  8
0
  6
BYBLOCK
 62
     0
100
AcDbLine
 10
6.568677
 20
68.526165
 30
0.0
 11
6.568677
 21
66.726165
 31
0.0
  0
LINE
  5
232
100
AcDbEntity
  8
0
  6
BYBLOCK
 62
     0
100
AcDbLine
 10
6.568677
 20
66.726165
 30
0.0
 11
4.768677
 21
66.726165
 31
0.0
  0
SOLID
  5
233
100
AcDbEntity
  8
0
  6
BYBLOCK
 62
     0
100
AcDbTrace
 10
6.268677
 20
72.876165
 30
0.0
 11
6.868677
 21
72.876165
 31
0.0
 12
6.568677
 22
71.076165
 32
0.0
 13
6.568677
 23
71.076165
 33
0.0
  0
SOLID
  5
234
100
AcDbEntity
  8
0
  6
BYBLOCK
 62
     0
100
AcDbTrace
 10
6.268677
 20
68.526165
 30
0.0
 11
6.868677
 21
68.526165
 31
0.0
 12
6.568677
 22
70.326165
 32
0.0
 13
6.568677
 23
70.326165
 33
0.0
  0
MTEXT
  5
235
100
AcDbEntity
  8
0
  6
BYBLOCK
 62
     0
100
AcDbMText
 10
1.468677
 20
66.726165
 30
0.0
 40
1.8
 41
0.0
 71
     5
 72
     1
  1
\A1;3/4
  0
POINT
  5
236
100
AcDbEntity
  8
DEFPOINTS
  6
BYBLOCK
 62
     0
100
AcDbPoint
 10
8.086065
 20
71.076165
 30
0.0
  0
POINT
  5
237
100
AcDbEntity
  8
DEFPOINTS
  6
BYBLOCK
 62
     0
100
AcDbPoint
 10
8.086065
 20
70.326165
 30
0.0
  0
POINT
  5
238
100
AcDbEntity
  8
DEFPOINTS
  6
BYBLOCK
 62
     0
100
AcDbPoint
 10
6.568677
 20
70.326165
 30
0.0
  0
ENDBLK
  5
239
100
AcDbEntity
  8
0
100
AcDbBlockEnd
  0
BLOCK
  5
23C
100
AcDbEntity
  8
0
100
AcDbBlockBegin
  2
*D18
 70
     1
 10
0.0
 20
0.0
 30
0.0
  3
*D18
  1

  0
LINE
  5
23D
100
AcDbEntity
  8
0
  6
BYBLOCK
 62
     0
100
AcDbLine
 10
8.086065
 20
82.951165
 30
0.0
 11
8.086065
 21
88.226555
 31
0.0
  0
LINE
  5
23E
100
AcDbEntity
  8
0
  6
BYBLOCK
 62
     0
100
AcDbLine
 10
56.086065
 20
82.951165
 30
0.0
 11
56.086065
 21
88.226555
 31
0.0
  0
LINE
  5
23F
100
AcDbEntity
  8
0
  6
BYBLOCK
 62
     0
100
AcDbLine
 10
9.886065
 20
86.426555
 30
0.0
 11
27.886065
 21
86.426555
 31
0.0
  0
LINE
  5
240
100
AcDbEntity
  8
0
  6
BYBLOCK
 62
     0
100
AcDbLine
 10
54.286065
 20
86.426555
 30
0.0
 11
36.286065
 21
86.426555
 31
0.0
  0
SOLID
  5
241
100
AcDbEntity
  8
0
  6
BYBLOCK
 62
     0
100
AcDbTrace
 10
9.886065
 20
86.726555
 30
0.0
 11
9.886065
 21
86.126555
 31
0.0
 12
8.086065
 22
86.426555
 32
0.0
 13
8.086065
 23
86.426555
 33
0.0
  0
SOLID
  5
242
100
AcDbEntity
  8
0
  6
BYBLOCK
 62
     0
100
AcDbTrace
 10
54.286065
 20
86.726555
 30
0.0
 11
54.286065
 21
86.126555
 31
0.0
 12
56.086065
 22
86.426555
 32
0.0
 13
56.086065
 23
86.426555
 33
0.0
  0
MTEXT
  5
243
100
AcDbEntity
  8
0
  6
BYBLOCK
 62
     0
100
AcDbMText
 10
32.086065
 20
86.426555
 30
0.0
 40
1.8
 41
0.0
 71
     5
 72
     1
  1
\A1;48.00
  0
POINT
  5
244
100
AcDbEntity
  8
DEFPOINTS
  6
BYBLOCK
 62
     0
100
AcDbPoint
 10
8.086065
 20
82.326165
 30
0.0
  0
POINT
  5
245
100
AcDbEntity
  8
DEFPOINTS
  6
BYBLOCK
 62
     0
100
AcDbPoint
 10
56.086065
 20
82.326165
 30
0.0
  0
POINT
  5
246
100
AcDbEntity
  8
DEFPOINTS
  6
BYBLOCK
 62
     0
100
AcDbPoint
 10
56.086065
 20
86.426555
 30
0.0
  0
ENDBLK
  5
247
100
AcDbEntity
  8
0
100
AcDbBlockEnd
  0
BLOCK
  5
259
100
AcDbEntity
  8
0
100
AcDbBlockBegin
  2
*D19
 70
     1
 10
0.0
 20
0.0
 30
0.0
  3
*D19
  1

  0
LINE
  5
25A
100
AcDbEntity
  8
0
  6
BYBLOCK
 62
     0
100
AcDbLine
 10
19.286862
 20
69.713659
 30
0.0
 11
7.499711
 21
69.713659
 31
0.0
  0
LINE
  5
25B
100
AcDbEntity
  8
0
  6
BYBLOCK
 62
     0
100
AcDbLine
 10
19.286862
 20
70.713659
 30
0.0
 11
7.499711
 21
70.713659
 31
0.0
  0
LINE
  5
25C
100
AcDbEntity
  8
0
  6
BYBLOCK
 62
     0
100
AcDbLine
 10
9.299711
 20
67.913659
 30
0.0
 11
9.299711
 21
66.113659
 31
0.0
  0
LINE
  5
25D
100
AcDbEntity
  8
0
  6
BYBLOCK
 62
     0
100
AcDbLine
 10
9.299711
 20
72.513659
 30
0.0
 11
9.299711
 21
74.313659
 31
0.0
  0
LINE
  5
25E
100
AcDbEntity
  8
0
  6
BYBLOCK
 62
     0
100
AcDbLine
 10
9.299711
 20
74.313659
 30
0.0
 11
11.099711
 21
74.313659
 31
0.0
  0
SOLID
  5
25F
100
AcDbEntity
  8
0
  6
BYBLOCK
 62
     0
100
AcDbTrace
 10
8.999711
 20
67.913659
 30
0.0
 11
9.599711
 21
67.913659
 31
0.0
 12
9.299711
 22
69.713659
 32
0.0
 13
9.299711
 23
69.713659
 33
0.0
  0
SOLID
  5
260
100
AcDbEntity
  8
0
  6
BYBLOCK
 62
     0
100
AcDbTrace
 10
8.999711
 20
72.513659
 30
0.0
 11
9.599711
 21
72.513659
 31
0.0
 12
9.299711
 22
70.713659
 32
0.0
 13
9.299711
 23
70.713659
 33
0.0
  0
MTEXT
  5
261
100
AcDbEntity
  8
0
  6
BYBLOCK
 62
     0
100
AcDbMText
 10
12.299711
 20
74.313659
 30
0.0
 40
1.8
 41
0.0
 71
     5
 72
     1
  1
\A1;1
  0
POINT
  5
262
100
AcDbEntity
  8
DEFPOINTS
  6
BYBLOCK
 62
     0
100
AcDbPoint
 10
19.911862
 20
69.713659
 30
0.0
  0
POINT
  5
263
100
AcDbEntity
  8
DEFPOINTS
  6
BYBLOCK
 62
     0
100
AcDbPoint
 10
19.911862
 20
70.713659
 30
0.0
  0
POINT
  5
264
100
AcDbEntity
  8
DEFPOINTS
  6
BYBLOCK
 62
     0
100
AcDbPoint
 10
9.299711
 20
70.713659
 30
0.0
  0
ENDBLK
  5
265
100
AcDbEntity
  8
0
100
AcDbBlockEnd
  0
BLOCK
  5
269
100
AcDbEntity
  8
0
100
AcDbBlockBegin
  2
*D20
 70
     1
 10
0.0
 20
0.0
 30
0.0
  3
*D20
  1

  0
LINE
  5
26A
100
AcDbEntity
  8
0
  6
BYBLOCK
 62
     0
100
AcDbLine
 10
19.286862
 20
59.713659
 30
0.0
 11
13.704614
 21
59.713659
 31
0.0
  0
LINE
  5
26B
100
AcDbEntity
  8
0
  6
BYBLOCK
 62
     0
100
AcDbLine
 10
19.286862
 20
56.713659
 30
0.0
 11
13.704614
 21
56.713659
 31
0.0
  0
LINE
  5
26C
100
AcDbEntity
  8
0
  6
BYBLOCK
 62
     0
100
AcDbLine
 10
15.504614
 20
61.513659
 30
0.0
 11
15.504614
 21
63.313659
 31
0.0
  0
LINE
  5
26D
100
AcDbEntity
  8
0
  6
BYBLOCK
 62
     0
100
AcDbLine
 10
15.504614
 20
54.913659
 30
0.0
 11
15.504614
 21
53.113659
 31
0.0
  0
LINE
  5
26E
100
AcDbEntity
  8
0
  6
BYBLOCK
 62
     0
100
AcDbLine
 10
15.504614
 20
53.113659
 30
0.0
 11
13.704614
 21
53.113659
 31
0.0
  0
SOLID
  5
26F
100
AcDbEntity
  8
0
  6
BYBLOCK
 62
     0
100
AcDbTrace
 10
15.204614
 20
61.513659
 30
0.0
 11
15.804614
 21
61.513659
 31
0.0
 12
15.504614
 22
59.713659
 32
0.0
 13
15.504614
 23
59.713659
 33
0.0
  0
SOLID
  5
270
100
AcDbEntity
  8
0
  6
BYBLOCK
 62
     0
100
AcDbTrace
 10
15.204614
 20
54.913659
 30
0.0
 11
15.804614
 21
54.913659
 31
0.0
 12
15.504614
 22
56.713659
 32
0.0
 13
15.504614
 23
56.713659
 33
0.0
  0
MTEXT
  5
271
100
AcDbEntity
  8
0
  6
BYBLOCK
 62
     0
100
AcDbMText
 10
10.404614
 20
53.113659
 30
0.0
 40
1.8
 41
0.0
 71
     5
 72
     1
  1
\A1;3.00
  0
POINT
  5
272
100
AcDbEntity
  8
DEFPOINTS
  6
BYBLOCK
 62
     0
100
AcDbPoint
 10
19.911862
 20
59.713659
 30
0.0
  0
POINT
  5
273
100
AcDbEntity
  8
DEFPOINTS
  6
BYBLOCK
 62
     0
100
AcDbPoint
 10
19.911862
 20
56.713659
 30
0.0
  0
POINT
  5
274
100
AcDbEntity
  8
DEFPOINTS
  6
BYBLOCK
 62
     0
100
AcDbPoint
 10
15.504614
 20
56.713659
 30
0.0
  0
ENDBLK
  5
275
100
AcDbEntity
  8
0
100
AcDbBlockEnd
  0
BLOCK
  5
286
100
AcDbEntity
  8
0
100
AcDbBlockBegin
  2
*D21
 70
     1
 10
0.0
 20
0.0
 30
0.0
  3
*D21
  1

  0
LINE
  5
287
100
AcDbEntity
  8
0
  6
BYBLOCK
 62
     0
100
AcDbLine
 10
41.911862
 20
48.088659
 30
0.0
 11
41.911862
 21
42.921657
 31
0.0
  0
LINE
  5
288
100
AcDbEntity
  8
0
  6
BYBLOCK
 62
     0
100
AcDbLine
 10
45.911862
 20
48.088659
 30
0.0
 11
45.911862
 21
42.921657
 31
0.0
  0
LINE
  5
289
100
AcDbEntity
  8
0
  6
BYBLOCK
 62
     0
100
AcDbLine
 10
40.111862
 20
44.721657
 30
0.0
 11
38.311862
 21
44.721657
 31
0.0
  0
LINE
  5
28A
100
AcDbEntity
  8
0
  6
BYBLOCK
 62
     0
100
AcDbLine
 10
47.711862
 20
44.721657
 30
0.0
 11
49.511862
 21
44.721657
 31
0.0
  0
SOLID
  5
28B
100
AcDbEntity
  8
0
  6
BYBLOCK
 62
     0
100
AcDbTrace
 10
40.111862
 20
45.021657
 30
0.0
 11
40.111862
 21
44.421657
 31
0.0
 12
41.911862
 22
44.721657
 32
0.0
 13
41.911862
 23
44.721657
 33
0.0
  0
SOLID
  5
28C
100
AcDbEntity
  8
0
  6
BYBLOCK
 62
     0
100
AcDbTrace
 10
47.711862
 20
45.021657
 30
0.0
 11
47.711862
 21
44.421657
 31
0.0
 12
45.911862
 22
44.721657
 32
0.0
 13
45.911862
 23
44.721657
 33
0.0
  0
MTEXT
  5
28D
100
AcDbEntity
  8
0
  6
BYBLOCK
 62
     0
100
AcDbMText
 10
52.811862
 20
44.721657
 30
0.0
 40
1.8
 41
0.0
 71
     5
 72
     1
  1
\A1;4.00
  0
POINT
  5
28E
100
AcDbEntity
  8
DEFPOINTS
  6
BYBLOCK
 62
     0
100
AcDbPoint
 10
41.911862
 20
48.713659
 30
0.0
  0
POINT
  5
28F
100
AcDbEntity
  8
DEFPOINTS
  6
BYBLOCK
 62
     0
100
AcDbPoint
 10
45.911862
 20
48.713659
 30
0.0
  0
POINT
  5
290
100
AcDbEntity
  8
DEFPOINTS
  6
BYBLOCK
 62
     0
100
AcDbPoint
 10
45.911862
 20
44.721657
 30
0.0
  0
ENDBLK
  5
291
100
AcDbEntity
  8
0
100
AcDbBlockEnd
  0
BLOCK
  5
2AF
100
AcDbEntity
  8
0
100
AcDbBlockBegin
  2
*D22
 70
     1
 10
0.0
 20
0.0
 30
0.0
  3
*D22
  1

  0
LINE
  5
2B0
100
AcDbEntity
  8
0
  6
BYBLOCK
 62
     0
100
AcDbLine
 10
40.911862
 20
46.088659
 30
0.0
 11
40.911862
 21
38.411043
 31
0.0
  0
LINE
  5
2B1
100
AcDbEntity
  8
0
  6
BYBLOCK
 62
     0
100
AcDbLine
 10
46.511862
 20
46.088659
 30
0.0
 11
46.511862
 21
38.411043
 31
0.0
  0
LINE
  5
2B2
100
AcDbEntity
  8
0
  6
BYBLOCK
 62
     0
100
AcDbLine
 10
42.711862
 20
40.211043
 30
0.0
 11
44.711862
 21
40.211043
 31
0.0
  0
LINE
  5
2B3
100
AcDbEntity
  8
0
  6
BYBLOCK
 62
     0
100
AcDbLine
 10
46.511862
 20
40.211043
 30
0.0
 11
48.311862
 21
40.211043
 31
0.0
  0
SOLID
  5
2B4
100
AcDbEntity
  8
0
  6
BYBLOCK
 62
     0
100
AcDbTrace
 10
42.711862
 20
40.511043
 30
0.0
 11
42.711862
 21
39.911043
 31
0.0
 12
40.911862
 22
40.211043
 32
0.0
 13
40.911862
 23
40.211043
 33
0.0
  0
SOLID
  5
2B5
100
AcDbEntity
  8
0
  6
BYBLOCK
 62
     0
100
AcDbTrace
 10
44.711862
 20
40.511043
 30
0.0
 11
44.711862
 21
39.911043
 31
0.0
 12
46.511862
 22
40.211043
 32
0.0
 13
46.511862
 23
40.211043
 33
0.0
  0
MTEXT
  5
2B6
100
AcDbEntity
  8
0
  6
BYBLOCK
 62
     0
100
AcDbMText
 10
49.811862
 20
40.211043
 30
0.0
 40
1.8
 41
0.0
 71
     5
 72
     1
  1
\A1;6
  0
POINT
  5
2B7
100
AcDbEntity
  8
DEFPOINTS
  6
BYBLOCK
 62
     0
100
AcDbPoint
 10
40.911862
 20
46.713659
 30
0.0
  0
POINT
  5
2B8
100
AcDbEntity
  8
DEFPOINTS
  6
BYBLOCK
 62
     0
100
AcDbPoint
 10
46.511862
 20
46.713659
 30
0.0
  0
POINT
  5
2B9
100
AcDbEntity
  8
DEFPOINTS
  6
BYBLOCK
 62
     0
100
AcDbPoint
 10
46.511862
 20
40.211043
 30
0.0
  0
ENDBLK
  5
2BA
100
AcDbEntity
  8
0
100
AcDbBlockEnd
  0
BLOCK
  5
2CB
100
AcDbEntity
  8
0
100
AcDbBlockBegin
  2
*D23
 70
     1
 10
0.0
 20
0.0
 30
0.0
  3
*D23
  1

  0
LINE
  5
2CC
100
AcDbEntity
  8
0
  6
BYBLOCK
 62
     0
100
AcDbLine
 10
19.286862
 20
47.713659
 30
0.0
 11
16.441185
 21
47.713659
 31
0.0
  0
LINE
  5
2CD
100
AcDbEntity
  8
0
  6
BYBLOCK
 62
     0
100
AcDbLine
 10
19.286862
 20
46.713659
 30
0.0
 11
16.441185
 21
46.713659
 31
0.0
  0
LINE
  5
2CE
100
AcDbEntity
  8
0
  6
BYBLOCK
 62
     0
100
AcDbLine
 10
18.241185
 20
49.513659
 30
0.0
 11
18.241185
 21
51.313659
 31
0.0
  0
LINE
  5
2CF
100
AcDbEntity
  8
0
  6
BYBLOCK
 62
     0
100
AcDbLine
 10
18.241185
 20
44.913659
 30
0.0
 11
18.241185
 21
43.113659
 31
0.0
  0
LINE
  5
2D0
100
AcDbEntity
  8
0
  6
BYBLOCK
 62
     0
100
AcDbLine
 10
18.241185
 20
43.113659
 30
0.0
 11
16.441185
 21
43.113659
 31
0.0
  0
SOLID
  5
2D1
100
AcDbEntity
  8
0
  6
BYBLOCK
 62
     0
100
AcDbTrace
 10
17.941185
 20
49.513659
 30
0.0
 11
18.541185
 21
49.513659
 31
0.0
 12
18.241185
 22
47.713659
 32
0.0
 13
18.241185
 23
47.713659
 33
0.0
  0
SOLID
  5
2D2
100
AcDbEntity
  8
0
  6
BYBLOCK
 62
     0
100
AcDbTrace
 10
17.941185
 20
44.913659
 30
0.0
 11
18.541185
 21
44.913659
 31
0.0
 12
18.241185
 22
46.713659
 32
0.0
 13
18.241185
 23
46.713659
 33
0.0
  0
MTEXT
  5
2D3
100
AcDbEntity
  8
0
  6
BYBLOCK
 62
     0
100
AcDbMText
 10
15.241185
 20
43.113659
 30
0.0
 40
1.8
 41
0.0
 71
     5
 72
     1
  1
\A1;1
  0
POINT
  5
2D4
100
AcDbEntity
  8
DEFPOINTS
  6
BYBLOCK
 62
     0
100
AcDbPoint
 10
19.911862
 20
47.713659
 30
0.0
  0
POINT
  5
2D5
100
AcDbEntity
  8
DEFPOINTS
  6
BYBLOCK
 62
     0
100
AcDbPoint
 10
19.911862
 20
46.713659
 30
0.0
  0
POINT
  5
2D6
100
AcDbEntity
  8
DEFPOINTS
  6
BYBLOCK
 62
     0
100
AcDbPoint
 10
18.241185
 20
46.713659
 30
0.0
  0
ENDBLK
  5
2D7
100
AcDbEntity
  8
0
100
AcDbBlockEnd
  0
BLOCK
  5
2DB
100
AcDbEntity
  8
0
100
AcDbBlockBegin
  2
*D24
 70
     1
 10
0.0
 20
0.0
 30
0.0
  3
*D24
  1

  0
LINE
  5
2DC
100
AcDbEntity
  8
0
  6
BYBLOCK
 62
     0
100
AcDbLine
 10
19.911862
 20
60.338659
 30
0.0
 11
19.911862
 21
65.297507
 31
0.0
  0
LINE
  5
2DD
100
AcDbEntity
  8
0
  6
BYBLOCK
 62
     0
100
AcDbLine
 10
67.911862
 20
60.338659
 30
0.0
 11
67.911862
 21
65.297507
 31
0.0
  0
LINE
  5
2DE
100
AcDbEntity
  8
0
  6
BYBLOCK
 62
     0
100
AcDbLine
 10
21.711862
 20
63.497507
 30
0.0
 11
39.711862
 21
63.497507
 31
0.0
  0
LINE
  5
2DF
100
AcDbEntity
  8
0
  6
BYBLOCK
 62
     0
100
AcDbLine
 10
66.111862
 20
63.497507
 30
0.0
 11
48.111862
 21
63.497507
 31
0.0
  0
SOLID
  5
2E0
100
AcDbEntity
  8
0
  6
BYBLOCK
 62
     0
100
AcDbTrace
 10
21.711862
 20
63.797507
 30
0.0
 11
21.711862
 21
63.197507
 31
0.0
 12
19.911862
 22
63.497507
 32
0.0
 13
19.911862
 23
63.497507
 33
0.0
  0
SOLID
  5
2E1
100
AcDbEntity
  8
0
  6
BYBLOCK
 62
     0
100
AcDbTrace
 10
66.111862
 20
63.797507
 30
0.0
 11
66.111862
 21
63.197507
 31
0.0
 12
67.911862
 22
63.497507
 32
0.0
 13
67.911862
 23
63.497507
 33
0.0
  0
MTEXT
  5
2E2
100
AcDbEntity
  8
0
  6
BYBLOCK
 62
     0
100
AcDbMText
 10
43.911862
 20
63.497507
 30
0.0
 40
1.8
 41
0.0
 71
     5
 72
     1
  1
\A1;48.00
  0
POINT
  5
2E3
100
AcDbEntity
  8
DEFPOINTS
  6
BYBLOCK
 62
     0
100
AcDbPoint
 10
19.911862
 20
59.713659
 30
0.0
  0
POINT
  5
2E4
100
AcDbEntity
  8
DEFPOINTS
  6
BYBLOCK
 62
     0
100
AcDbPoint
 10
67.911862
 20
59.713659
 30
0.0
  0
POINT
  5
2E5
100
AcDbEntity
  8
DEFPOINTS
  6
BYBLOCK
 62
     0
100
AcDbPoint
 10
67.911862
 20
63.497507
 30
0.0
  0
ENDBLK
  5
2E6
100
AcDbEntity
  8
0
100
AcDbBlockEnd
  0
ENDSEC
  0
SECTION
  2
ENTITIES
  0
LINE
  5
34
100
AcDbEntity
  8
0
100
AcDbLine
 10
0.0
 20
0.0
 30
0.0
 11
120.0
 21
0.0
 31
0.0
  0
LINE
  5
35
100
AcDbEntity
  8
0
100
AcDbLine
 10
120.0
 20
0.0
 30
0.0
 11
120.0
 21
90.0
 31
0.0
  0
LINE
  5
36
100
AcDbEntity
  8
0
100
AcDbLine
 10
120.0
 20
90.0
 30
0.0
 11
0.0
 21
90.0
 31
0.0
  0
LINE
  5
37
100
AcDbEntity
  8
0
100
AcDbLine
 10
0.0
 20
90.0
 30
0.0
 11
0.0
 21
0.0
 31
0.0
  0
LINE
  5
3D
100
AcDbEntity
  8
0
100
AcDbLine
 10
3.822925
 20
21.159815
 30
0.0
 11
33.822925
 21
21.159815
 31
0.0
  0
LINE
  5
3E
100
AcDbEntity
  8
0
100
AcDbLine
 10
33.822925
 20
21.159815
 30
0.0
 11
33.822925
 21
22.159815
 31
0.0
  0
LINE
  5
3F
100
AcDbEntity
  8
0
100
AcDbLine
 10
3.822925
 20
13.590803
 30
0.0
 11
3.822925
 21
16.090803
 31
0.0
  0
LINE
  5
40
100
AcDbEntity
  8
0
100
AcDbLine
 10
3.822925
 20
23.659815
 30
0.0
 11
23.822925
 21
23.659815
 31
0.0
  0
LINE
  5
41
100
AcDbEntity
  8
0
100
AcDbLine
 10
23.822925
 20
23.659815
 30
0.0
 11
33.822925
 21
22.159815
 31
0.0
  0
LINE
  5
42
100
AcDbEntity
  8
0
100
AcDbLine
 10
24.822925
 20
21.659815
 30
0.0
 11
24.822925
 21
22.409815
 31
0.0
  0
LINE
  5
43
100
AcDbEntity
  8
0
100
AcDbLine
 10
23.197925
 20
21.659815
 30
0.0
 11
23.197925
 21
22.409815
 31
0.0
  0
LINE
  5
44
100
AcDbEntity
  8
0
100
AcDbLine
 10
23.197925
 20
21.659815
 30
0.0
 11
24.822925
 21
21.659815
 31
0.0
  0
LINE
  5
46
100
AcDbEntity
  8
0
100
AcDbLine
 10
23.197925
 20
22.409815
 30
0.0
 11
24.822925
 21
22.409815
 31
0.0
  0
LINE
  5
48
100
AcDbEntity
  8
0
100
AcDbLine
 10
3.822925
 20
13.590803
 30
0.0
 11
33.822925
 21
13.590803
 31
0.0
  0
LINE
  5
49
100
AcDbEntity
  8
0
100
AcDbLine
 10
33.822925
 20
13.590803
 30
0.0
 11
33.822925
 21
16.090803
 31
0.0
  0
LINE
  5
4A
100
AcDbEntity
  8
0
100
AcDbLine
 10
33.822925
 20
16.090803
 30
0.0
 11
3.822925
 21
16.090803
 31
0.0
  0
LINE
  5
4B
100
AcDbEntity
  8
0
100
AcDbLine
 10
23.822925
 20
16.090803
 30
0.0
 11
23.822925
 21
13.590803
 31
0.0
  0
LINE
  5
4C
100
AcDbEntity
  8
0
100
AcDbLine
 10
3.822925
 20
23.659815
 30
0.0
 11
3.822925
 21
21.159815
 31
0.0
  0
LINE
  5
4D
100
AcDbEntity
  8
0
100
AcDbLine
 10
12.072925
 20
13.965803
 30
0.0
 11
17.572925
 21
13.965803
 31
0.0
  0
LINE
  5
4E
100
AcDbEntity
  8
0
100
AcDbLine
 10
17.572925
 20
15.715803
 30
0.0
 11
12.072925
 21
15.715803
 31
0.0
  0
LINE
  5
4F
100
AcDbEntity
  8
0
100
AcDbLine
 10
11.822925
 20
14.215803
 30
0.0
 11
11.822925
 21
15.465803
 31
0.0
  0
LINE
  5
50
100
AcDbEntity
  8
0
100
AcDbLine
 10
17.822925
 20
14.215803
 30
0.0
 11
17.822925
 21
15.465803
 31
0.0
  0
ARC
  5
51
100
AcDbEntity
  8
0
100
AcDbCircle
 10
12.072925
 20
14.215803
 30
0.0
 40
0.25
100
AcDbArc
 50
180.0
 51
270.0
  0
ARC
  5
52
100
AcDbEntity
  8
0
100
AcDbCircle
 10
17.572925
 20
14.215803
 30
0.0
 40
0.25
100
AcDbArc
 50
270.0
 51
0.0
  0
ARC
  5
53
100
AcDbEntity
  8
0
100
AcDbCircle
 10
17.572925
 20
15.465803
 30
0.0
 40
0.25
100
AcDbArc
 50
0.0
 51
90.0
  0
ARC
  5
54
100
AcDbEntity
  8
0
100
AcDbCircle
 10
12.072925
 20
15.465803
 30
0.0
 40
0.25
100
AcDbArc
 50
90.0
 51
180.0
  0
LINE
  5
56
100
AcDbEntity
  8
0
100
AcDbLine
 10
14.635925
 20
23.534815
 30
0.0
 11
15.009925
 21
23.534815
 31
0.0
  0
LINE
  5
57
100
AcDbEntity
  8
0
100
AcDbLine
 10
14.635925
 20
23.409815
 30
0.0
 11
15.009925
 21
23.409815
 31
0.0
  0
LINE
  5
58
100
AcDbEntity
  8
0
100
AcDbLine
 10
15.009925
 20
23.409815
 30
0.0
 11
15.009925
 21
23.534815
 31
0.0
  0
LINE
  5
59
100
AcDbEntity
  8
0
100
AcDbLine
 10
14.635925
 20
23.409815
 30
0.0
 11
14.635925
 21
23.534815
 31
0.0
  0
CIRCLE
  5
60
100
AcDbEntity
  8
0
100
AcDbCircle
 10
14.510925
 20
23.472315
 30
0.0
 40
0.031304
  0
CIRCLE
  5
61
100
AcDbEntity
  8
0
100
AcDbCircle
 10
15.134925
 20
23.472315
 30
0.0
 40
0.031304
  0
LINE
  5
AA
100
AcDbEntity
  8
0
  6
BYBLOCK
 62
     0
100
AcDbLine
 10
11.808346
 20
12.585717
 30
0.0
 11
11.808346
 21
9.705815
 31
0.0
  0
LINE
  5
AB
100
AcDbEntity
  8
0
  6
BYBLOCK
 62
     0
100
AcDbLine
 10
17.821679
 20
12.965803
 30
0.0
 11
17.821679
 21
9.705815
 31
0.0
  0
SOLID
  5
AE
100
AcDbEntity
  8
0
  6
BYBLOCK
 62
     0
100
AcDbTrace
 10
13.608346
 20
11.805815
 30
0.0
 11
13.608346
 21
11.205815
 31
0.0
 12
11.808346
 22
11.505815
 32
0.0
 13
11.808346
 23
11.505815
 33
0.0
  0
SOLID
  5
AF
100
AcDbEntity
  8
0
  6
BYBLOCK
 62
     0
100
AcDbTrace
 10
16.021679
 20
11.805815
 30
0.0
 11
16.021679
 21
11.205815
 31
0.0
 12
17.821679
 22
11.505815
 32
0.0
 13
17.821679
 23
11.505815
 33
0.0
  0
MTEXT
  5
B0
100
AcDbEntity
  8
0
  6
BYBLOCK
 62
     0
100
AcDbMText
 10
14.830678
 20
11.38898
 30
0.0
 40
1.8
 41
0.0
 71
     5
 72
     1
  1
6
  0
POINT
  5
B1
100
AcDbEntity
  8
DEFPOINTS
  6
BYBLOCK
 62
     0
100
AcDbPoint
 10
11.808346
 20
13.210717
 30
0.0
  0
POINT
  5
B2
100
AcDbEntity
  8
DEFPOINTS
  6
BYBLOCK
 62
     0
100
AcDbPoint
 10
17.821679
 20
13.590803
 30
0.0
  0
POINT
  5
B3
100
AcDbEntity
  8
DEFPOINTS
  6
BYBLOCK
 62
     0
100
AcDbPoint
 10
17.821679
 20
11.505815
 30
0.0
  0
LINE
  5
B4
100
AcDbEntity
  8
0
  6
BYBLOCK
 62
     0
100
AcDbLine
 10
3.822925
 20
12.965803
 30
0.0
 11
3.822925
 21
9.71468
 31
0.0
  0
LINE
  5
B5
100
AcDbEntity
  8
0
  6
BYBLOCK
 62
     0
100
AcDbLine
 10
11.808346
 20
13.210717
 30
0.0
 11
11.808346
 21
9.71468
 31
0.0
  0
SOLID
  5
B9
100
AcDbEntity
  8
0
  6
BYBLOCK
 62
     0
100
AcDbTrace
 10
13.608346
 20
11.81468
 30
0.0
 11
13.608346
 21
11.21468
 31
0.0
 12
11.808346
 22
11.51468
 32
0.0
 13
11.808346
 23
11.51468
 33
0.0
  0
MTEXT
  5
BA
100
AcDbEntity
  8
0
  6
BYBLOCK
 62
     0
100
AcDbMText
 10
7.815635
 20
11.51468
 30
0.0
 40
1.8
 41
0.0
 71
     5
 72
     1
  1
8
  0
POINT
  5
BB
100
AcDbEntity
  8
DEFPOINTS
  6
BYBLOCK
 62
     0
100
AcDbPoint
 10
3.822925
 20
13.590803
 30
0.0
  0
POINT
  5
BC
100
AcDbEntity
  8
DEFPOINTS
  6
BYBLOCK
 62
     0
100
AcDbPoint
 10
11.808346
 20
13.835717
 30
0.0
  0
POINT
  5
BD
100
AcDbEntity
  8
DEFPOINTS
  6
BYBLOCK
 62
     0
100
AcDbPoint
 10
11.808346
 20
11.51468
 30
0.0
  0
LINE
  5
BE
100
AcDbEntity
  8
0
100
AcDbLine
 10
13.608346
 20
11.505815
 30
0.0
 11
13.880955
 21
11.505815
 31
0.0
  0
LINE
  5
BF
100
AcDbEntity
  8
0
100
AcDbLine
 10
16.021679
 20
11.505815
 30
0.0
 11
15.740622
 21
11.505815
 31
0.0
  0
TEXT
  5
C0
100
AcDbEntity
  8
0
100
AcDbText
 10
3.273878
 20
5.192228
 30
0.0
 40
1.0
  1
NOTE:  LEAVE 3/8" ON SIDES AT RADIO CUTOUT
100
AcDbText
  0
TEXT
  5
C1
100
AcDbEntity
  8
0
100
AcDbText
 10
9.501216
 20
2.951366
 30
0.0
 40
1.0
  1
RADIUS RADIO CUTOUT HOLE CORNERS
100
AcDbText
  0
LINE
  5
C4
100
AcDbEntity
  8
0
100
AcDbLine
 10
13.822925
 20
16.090803
 30
0.0
 11
13.822925
 21
20.090803
 31
0.0
  0
LINE
  5
C5
100
AcDbEntity
  8
0
100
AcDbLine
 10
13.822925
 20
20.090803
 30
0.0
 11
14.822925
 21
20.090803
 31
0.0
  0
LINE
  5
C6
100
AcDbEntity
  8
0
100
AcDbLine
 10
14.822925
 20
20.090803
 30
0.0
 11
14.822925
 21
16.090803
 31
0.0
  0
LINE
  5
D5
100
AcDbEntity
  8
0
  6
BYBLOCK
 62
     0
100
AcDbLine
 10
3.822925
 20
16.715803
 30
0.0
 11
3.822925
 21
19.587928
 31
0.0
  0
LINE
  5
D6
100
AcDbEntity
  8
0
  6
BYBLOCK
 62
     0
100
AcDbLine
 10
13.822925
 20
19.465803
 30
0.0
 11
13.822925
 21
16.090803
 31
0.0
  0
SOLID
  5
D9
100
AcDbEntity
  8
0
  6
BYBLOCK
 62
     0
100
AcDbTrace
 10
12.022925
 20
18.087928
 30
0.0
 11
12.022925
 21
17.487928
 31
0.0
 12
13.822925
 22
17.787928
 32
0.0
 13
13.822925
 23
17.787928
 33
0.0
  0
SOLID
  5
DA
100
AcDbEntity
  8
0
  6
BYBLOCK
 62
     0
100
AcDbTrace
 10
5.622925
 20
18.087928
 30
0.0
 11
5.622925
 21
17.487928
 31
0.0
 12
3.822925
 22
17.787928
 32
0.0
 13
3.822925
 23
17.787928
 33
0.0
  0
MTEXT
  5
DB
100
AcDbEntity
  8
0
  6
BYBLOCK
 62
     0
100
AcDbMText
 10
8.822925
 20
17.787928
 30
0.0
 40
1.8
 41
0.0
 71
     5
 72
     1
  1
10
  0
POINT
  5
DC
100
AcDbEntity
  8
DEFPOINTS
  6
BYBLOCK
 62
     0
100
AcDbPoint
 10
3.822925
 20
16.090803
 30
0.0
  0
POINT
  5
DD
100
AcDbEntity
  8
DEFPOINTS
  6
BYBLOCK
 62
     0
100
AcDbPoint
 10
13.822925
 20
20.090803
 30
0.0
  0
POINT
  5
DE
100
AcDbEntity
  8
DEFPOINTS
  6
BYBLOCK
 62
     0
100
AcDbPoint
 10
13.822925
 20
17.787928
 30
0.0
  0
LINE
  5
DF
100
AcDbEntity
  8
0
100
AcDbLine
 10
5.622925
 20
17.787928
 30
0.0
 11
6.746876
 21
17.783672
 31
0.0
  0
LINE
  5
E0
100
AcDbEntity
  8
0
100
AcDbLine
 10
12.022925
 20
17.787928
 30
0.0
 11
10.971857
 21
17.783672
 31
0.0
  0
SOLID
  5
E1
100
AcDbEntity
  8
0
  6
BYBLOCK
 62
     0
100
AcDbTrace
 10
5.596329
 20
11.819112
 30
0.0
 11
5.596329
 21
11.219112
 31
0.0
 12
3.796329
 22
11.519112
 32
0.0
 13
3.796329
 23
11.519112
 33
0.0
  0
SOLID
  5
E2
100
AcDbEntity
  8
0
  6
BYBLOCK
 62
     0
100
AcDbTrace
 10
10.034942
 20
11.81468
 30
0.0
 11
10.034942
 21
11.21468
 31
0.0
 12
11.834942
 22
11.51468
 32
0.0
 13
11.834942
 23
11.51468
 33
0.0
  0
LINE
  5
E7
100
AcDbEntity
  8
0
100
AcDbLine
 10
10.034942
 20
11.51468
 30
0.0
 11
8.893254
 21
11.517123
 31
0.0
  0
LINE
  5
E8
100
AcDbEntity
  8
0
100
AcDbLine
 10
5.596329
 20
11.519112
 30
0.0
 11
6.807474
 21
11.517123
 31
0.0
  0
LINE
  5
E9
100
AcDbEntity
  8
0
  6
BYBLOCK
 62
     0
100
AcDbLine
 10
3.822925
 20
24.284815
 30
0.0
 11
3.822925
 21
28.515669
 31
0.0
  0
LINE
  5
EA
100
AcDbEntity
  8
0
  6
BYBLOCK
 62
     0
100
AcDbLine
 10
23.822925
 20
24.284815
 30
0.0
 11
23.822925
 21
28.515669
 31
0.0
  0
LINE
  5
EB
100
AcDbEntity
  8
0
  6
BYBLOCK
 62
     0
100
AcDbLine
 10
5.622925
 20
26.715669
 30
0.0
 11
9.772925
 21
26.715669
 31
0.0
  0
LINE
  5
EC
100
AcDbEntity
  8
0
  6
BYBLOCK
 62
     0
100
AcDbLine
 10
22.022925
 20
26.715669
 30
0.0
 11
17.872925
 21
26.715669
 31
0.0
  0
SOLID
  5
ED
100
AcDbEntity
  8
0
  6
BYBLOCK
 62
     0
100
AcDbTrace
 10
5.622925
 20
27.015669
 30
0.0
 11
5.622925
 21
26.415669
 31
0.0
 12
3.822925
 22
26.715669
 32
0.0
 13
3.822925
 23
26.715669
 33
0.0
  0
SOLID
  5
EE
100
AcDbEntity
  8
0
  6
BYBLOCK
 62
     0
100
AcDbTrace
 10
22.022925
 20
27.015669
 30
0.0
 11
22.022925
 21
26.415669
 31
0.0
 12
23.822925
 22
26.715669
 32
0.0
 13
23.822925
 23
26.715669
 33
0.0
  0
MTEXT
  5
EF
100
AcDbEntity
  8
0
  6
BYBLOCK
 62
     0
100
AcDbMText
 10
13.822925
 20
26.715669
 30
0.0
 40
1.8
 41
0.0
 71
     5
 72
     1
  1
20
  0
POINT
  5
F0
100
AcDbEntity
  8
DEFPOINTS
  6
BYBLOCK
 62
     0
100
AcDbPoint
 10
3.822925
 20
23.659815
 30
0.0
  0
POINT
  5
F1
100
AcDbEntity
  8
DEFPOINTS
  6
BYBLOCK
 62
     0
100
AcDbPoint
 10
23.822925
 20
23.659815
 30
0.0
  0
POINT
  5
F2
100
AcDbEntity
  8
DEFPOINTS
  6
BYBLOCK
 62
     0
100
AcDbPoint
 10
23.822925
 20
26.715669
 30
0.0
  0
LINE
  5
F3
100
AcDbEntity
  8
0
  6
BYBLOCK
 62
     0
100
AcDbLine
 10
23.822925
 20
24.284815
 30
0.0
 11
23.822925
 21
28.507658
 31
0.0
  0
LINE
  5
F4
100
AcDbEntity
  8
0
  6
BYBLOCK
 62
     0
100
AcDbLine
 10
33.822925
 20
22.784815
 30
0.0
 11
33.822925
 21
28.507658
 31
0.0
  0
LINE
  5
F5
100
AcDbEntity
  8
0
  6
BYBLOCK
 62
     0
100
AcDbLine
 10
22.022925
 20
26.707658
 30
0.0
 11
20.222925
 21
26.707658
 31
0.0
  0
SOLID
  5
F7
100
AcDbEntity
  8
0
  6
BYBLOCK
 62
     0
100
AcDbTrace
 10
22.022925
 20
27.007658
 30
0.0
 11
22.022925
 21
26.407658
 31
0.0
 12
23.822925
 22
26.707658
 32
0.0
 13
23.822925
 23
26.707658
 33
0.0
  0
MTEXT
  5
F9
100
AcDbEntity
  8
0
  6
BYBLOCK
 62
     0
100
AcDbMText
 10
28.822925
 20
26.707658
 30
0.0
 40
1.8
 41
0.0
 71
     5
 72
     1
  1
10
  0
POINT
  5
FA
100
AcDbEntity
  8
DEFPOINTS
  6
BYBLOCK
 62
     0
100
AcDbPoint
 10
23.822925
 20
23.659815
 30
0.0
  0
POINT
  5
FB
100
AcDbEntity
  8
DEFPOINTS
  6
BYBLOCK
 62
     0
100
AcDbPoint
 10
33.822925
 20
22.159815
 30
0.0
  0
POINT
  5
FC
100
AcDbEntity
  8
DEFPOINTS
  6
BYBLOCK
 62
     0
100
AcDbPoint
 10
33.822925
 20
26.707658
 30
0.0
  0
LINE
  5
FD
100
AcDbEntity
  8
0
  6
BYBLOCK
 62
     0
100
AcDbLine
 10
34.447925
 20
21.159815
 30
0.0
 11
38.151356
 21
21.159815
 31
0.0
  0
LINE
  5
FE
100
AcDbEntity
  8
0
  6
BYBLOCK
 62
     0
100
AcDbLine
 10
34.447925
 20
22.159815
 30
0.0
 11
38.151356
 21
22.159815
 31
0.0
  0
LINE
  5
FF
100
AcDbEntity
  8
0
  6
BYBLOCK
 62
     0
100
AcDbLine
 10
36.351356
 20
19.359815
 30
0.0
 11
36.351356
 21
17.559815
 31
0.0
  0
LINE
  5
100
100
AcDbEntity
  8
0
  6
BYBLOCK
 62
     0
100
AcDbLine
 10
36.351356
 20
23.959815
 30
0.0
 11
36.351356
 21
25.759815
 31
0.0
  0
LINE
  5
101
100
AcDbEntity
  8
0
  6
BYBLOCK
 62
     0
100
AcDbLine
 10
36.351356
 20
25.759815
 30
0.0
 11
38.151356
 21
25.759815
 31
0.0
  0
SOLID
  5
102
100
AcDbEntity
  8
0
  6
BYBLOCK
 62
     0
100
AcDbTrace
 10
36.051356
 20
19.359815
 30
0.0
 11
36.651356
 21
19.359815
 31
0.0
 12
36.351356
 22
21.159815
 32
0.0
 13
36.351356
 23
21.159815
 33
0.0
  0
SOLID
  5
103
100
AcDbEntity
  8
0
  6
BYBLOCK
 62
     0
100
AcDbTrace
 10
36.051356
 20
23.959815
 30
0.0
 11
36.651356
 21
23.959815
 31
0.0
 12
36.351356
 22
22.159815
 32
0.0
 13
36.351356
 23
22.159815
 33
0.0
  0
MTEXT
  5
104
100
AcDbEntity
  8
0
  6
BYBLOCK
 62
     0
100
AcDbMText
 10
41.151356
 20
25.759815
 30
0.0
 40
1.8
 41
0.0
 71
     5
 72
     1
  1
1
  0
POINT
  5
105
100
AcDbEntity
  8
DEFPOINTS
  6
BYBLOCK
 62
     0
100
AcDbPoint
 10
33.822925
 20
21.159815
 30
0.0
  0
POINT
  5
106
100
AcDbEntity
  8
DEFPOINTS
  6
BYBLOCK
 62
     0
100
AcDbPoint
 10
33.822925
 20
22.159815
 30
0.0
  0
POINT
  5
107
100
AcDbEntity
  8
DEFPOINTS
  6
BYBLOCK
 62
     0
100
AcDbPoint
 10
36.351356
 20
22.159815
 30
0.0
  0
SOLID
  5
108
100
AcDbEntity
  8
0
  6
BYBLOCK
 62
     0
100
AcDbTrace
 10
25.622925
 20
27.07165
 30
0.0
 11
25.622925
 21
26.47165
 31
0.0
 12
23.822925
 22
26.77165
 32
0.0
 13
23.822925
 23
26.77165
 33
0.0
  0
LINE
  5
109
100
AcDbEntity
  8
0
  6
BYBLOCK
 62
     0
100
AcDbLine
 10
25.622925
 20
26.77165
 30
0.0
 11
27.422925
 21
26.77165
 31
0.0
  0
SOLID
  5
10A
100
AcDbEntity
  8
0
  6
BYBLOCK
 62
     0
100
AcDbTrace
 10
32.046958
 20
27.007658
 30
0.0
 11
32.046958
 21
26.407658
 31
0.0
 12
33.846958
 22
26.707658
 32
0.0
 13
33.846958
 23
26.707658
 33
0.0
  0
LINE
  5
10B
100
AcDbEntity
  8
0
100
AcDbLine
 10
32.046958
 20
26.707658
 30
0.0
 11
30.446208
 21
26.702698
 31
0.0
  0
LINE
  5
10C
100
AcDbEntity
  8
0
100
AcDbLine
 10
53.862337
 20
7.814672
 30
0.0
 11
71.862337
 21
7.814672
 31
0.0
  0
LINE
  5
10E
100
AcDbEntity
  8
0
100
AcDbLine
 10
62.862337
 20
14.814672
 30
0.0
 11
69.862337
 21
14.814672
 31
0.0
  0
LINE
  5
10F
100
AcDbEntity
  8
0
100
AcDbLine
 10
69.862337
 20
14.814672
 30
0.0
 11
71.862337
 21
7.814672
 31
0.0
  0
LINE
  5
110
100
AcDbEntity
  8
0
100
AcDbLine
 10
62.862337
 20
14.814672
 30
0.0
 11
55.862337
 21
14.814672
 31
0.0
  0
LINE
  5
111
100
AcDbEntity
  8
0
100
AcDbLine
 10
55.862337
 20
14.814672
 30
0.0
 11
53.862337
 21
7.814672
 31
0.0
  0
LINE
  5
112
100
AcDbEntity
  8
0
100
AcDbLine
 10
54.433765
 20
9.814672
 30
0.0
 11
71.290908
 21
9.814672
 31
0.0
  0
LEADER
  5
113
100
AcDbEntity
  8
0
100
AcDbLeader
  3
STANDARD_WS
 73
     0
 40
1.8
 76
     2
 10
60.1643
 20
11.640104
 30
0.0
 10
66.121204
 20
11.640104
 30
0.0
 77
   256
340
114
  0
MTEXT
  5
114
102
{ACAD_REACTORS
330
113
102
}
100
AcDbEntity
  8
0
100
AcDbMText
 10
67.500748
 20
24.594575
 30
0.0
 40
1.8
 41
0.0
 71
     4
 72
     1
  1
\A1;
  0
LINE
  5
15C
100
AcDbEntity
  8
0
  6
BYBLOCK
 62
     0
100
AcDbLine
 10
53.808765
 20
9.814672
 30
0.0
 11
48.212173
 21
9.814672
 31
0.0
  0
LINE
  5
15D
100
AcDbEntity
  8
0
  6
BYBLOCK
 62
     0
100
AcDbLine
 10
55.237337
 20
14.814672
 30
0.0
 11
48.212173
 21
14.814672
 31
0.0
  0
LINE
  5
15E
100
AcDbEntity
  8
0
  6
BYBLOCK
 62
     0
100
AcDbLine
 10
50.012173
 20
8.014672
 30
0.0
 11
50.012173
 21
6.214672
 31
0.0
  0
LINE
  5
15F
100
AcDbEntity
  8
0
  6
BYBLOCK
 62
     0
100
AcDbLine
 10
50.012173
 20
16.614672
 30
0.0
 11
50.012173
 21
18.414672
 31
0.0
  0
SOLID
  5
160
100
AcDbEntity
  8
0
  6
BYBLOCK
 62
     0
100
AcDbTrace
 10
49.712173
 20
8.014672
 30
0.0
 11
50.312173
 21
8.014672
 31
0.0
 12
50.012173
 22
9.814672
 32
0.0
 13
50.012173
 23
9.814672
 33
0.0
  0
SOLID
  5
161
100
AcDbEntity
  8
0
  6
BYBLOCK
 62
     0
100
AcDbTrace
 10
49.712173
 20
16.614672
 30
0.0
 11
50.312173
 21
16.614672
 31
0.0
 12
50.012173
 22
14.814672
 32
0.0
 13
50.012173
 23
14.814672
 33
0.0
  0
MTEXT
  5
162
100
AcDbEntity
  8
0
  6
BYBLOCK
 62
     0
100
AcDbMText
 10
50.012173
 20
12.314672
 30
0.0
 40
1.8
 41
0.0
 71
     5
 72
     1
  1
5
  0
POINT
  5
163
100
AcDbEntity
  8
DEFPOINTS
  6
BYBLOCK
 62
     0
100
AcDbPoint
 10
54.433765
 20
9.814672
 30
0.0
  0
POINT
  5
164
100
AcDbEntity
  8
DEFPOINTS
  6
BYBLOCK
 62
     0
100
AcDbPoint
 10
55.862337
 20
14.814672
 30
0.0
  0
POINT
  5
165
100
AcDbEntity
  8
DEFPOINTS
  6
BYBLOCK
 62
     0
100
AcDbPoint
 10
50.012173
 20
14.814672
 30
0.0
  0
LINE
  5
166
100
AcDbEntity
  8
0
  6
BYBLOCK
 62
     0
100
AcDbLine
 10
55.862337
 20
15.439672
 30
0.0
 11
55.862337
 21
19.373113
 31
0.0
  0
LINE
  5
167
100
AcDbEntity
  8
0
  6
BYBLOCK
 62
     0
100
AcDbLine
 10
69.862337
 20
15.439672
 30
0.0
 11
69.862337
 21
19.373113
 31
0.0
  0
LINE
  5
168
100
AcDbEntity
  8
0
  6
BYBLOCK
 62
     0
100
AcDbLine
 10
57.662337
 20
17.573113
 30
0.0
 11
58.962337
 21
17.573113
 31
0.0
  0
LINE
  5
169
100
AcDbEntity
  8
0
  6
BYBLOCK
 62
     0
100
AcDbLine
 10
68.062337
 20
17.573113
 30
0.0
 11
66.762337
 21
17.573113
 31
0.0
  0
SOLID
  5
16A
100
AcDbEntity
  8
0
  6
BYBLOCK
 62
     0
100
AcDbTrace
 10
57.662337
 20
17.873113
 30
0.0
 11
57.662337
 21
17.273113
 31
0.0
 12
55.862337
 22
17.573113
 32
0.0
 13
55.862337
 23
17.573113
 33
0.0
  0
SOLID
  5
16B
100
AcDbEntity
  8
0
  6
BYBLOCK
 62
     0
100
AcDbTrace
 10
68.062337
 20
17.873113
 30
0.0
 11
68.062337
 21
17.273113
 31
0.0
 12
69.862337
 22
17.573113
 32
0.0
 13
69.862337
 23
17.573113
 33
0.0
  0
MTEXT
  5
16C
100
AcDbEntity
  8
0
  6
BYBLOCK
 62
     0
100
AcDbMText
 10
62.862337
 20
17.573113
 30
0.0
 40
1.8
 41
0.0
 71
     5
 72
     1
  1
14
  0
POINT
  5
16D
100
AcDbEntity
  8
DEFPOINTS
  6
BYBLOCK
 62
     0
100
AcDbPoint
 10
55.862337
 20
14.814672
 30
0.0
  0
POINT
  5
16E
100
AcDbEntity
  8
DEFPOINTS
  6
BYBLOCK
 62
     0
100
AcDbPoint
 10
69.862337
 20
14.814672
 30
0.0
  0
POINT
  5
16F
100
AcDbEntity
  8
DEFPOINTS
  6
BYBLOCK
 62
     0
100
AcDbPoint
 10
69.862337
 20
17.573113
 30
0.0
  0
LINE
  5
170
100
AcDbEntity
  8
0
  6
BYBLOCK
 62
     0
100
AcDbLine
 10
71.915908
 20
9.814672
 30
0.0
 11
79.60633
 21
9.814672
 31
0.0
  0
LINE
  5
171
100
AcDbEntity
  8
0
  6
BYBLOCK
 62
     0
100
AcDbLine
 10
72.487337
 20
7.814672
 30
0.0
 11
79.60633
 21
7.814672
 31
0.0
  0
LINE
  5
172
100
AcDbEntity
  8
0
  6
BYBLOCK
 62
     0
100
AcDbLine
 10
77.847478
 20
11.603688
 30
0.0
 11
77.847478
 21
13.403688
 31
0.0
  0
LINE
  5
173
100
AcDbEntity
  8
0
  6
BYBLOCK
 62
     0
100
AcDbLine
 10
77.847478
 20
6.003688
 30
0.0
 11
77.847478
 21
4.203688
 31
0.0
  0
SOLID
  5
175
100
AcDbEntity
  8
0
  6
BYBLOCK
 62
     0
100
AcDbTrace
 10
77.547478
 20
11.603688
 30
0.0
 11
78.147478
 21
11.603688
 31
0.0
 12
77.847478
 22
9.803688
 32
0.0
 13
77.847478
 23
9.803688
 33
0.0
  0
SOLID
  5
176
100
AcDbEntity
  8
0
  6
BYBLOCK
 62
     0
100
AcDbTrace
 10
77.547478
 20
6.003688
 30
0.0
 11
78.147478
 21
6.003688
 31
0.0
 12
77.847478
 22
7.803688
 32
0.0
 13
77.847478
 23
7.803688
 33
0.0
  0
MTEXT
  5
177
100
AcDbEntity
  8
0
  6
BYBLOCK
 62
     0
100
AcDbMText
 10
77.924671
 20
8.793662
 30
0.0
 40
1.2
 41
0.0
 71
     5
 72
     1
  1
2
  0
POINT
  5
178
100
AcDbEntity
  8
DEFPOINTS
  6
BYBLOCK
 62
     0
100
AcDbPoint
 10
71.290908
 20
9.814672
 30
0.0
  0
POINT
  5
179
100
AcDbEntity
  8
DEFPOINTS
  6
BYBLOCK
 62
     0
100
AcDbPoint
 10
71.862337
 20
7.814672
 30
0.0
  0
POINT
  5
17A
100
AcDbEntity
  8
DEFPOINTS
  6
BYBLOCK
 62
     0
100
AcDbPoint
 10
48.822821
 20
34.894079
 30
0.0
  0
LINE
  5
17B
100
AcDbEntity
  8
0
  6
BYBLOCK
 62
     0
100
AcDbLine
 10
53.862337
 20
7.189672
 30
0.0
 11
53.862337
 21
1.583087
 31
0.0
  0
LINE
  5
17C
100
AcDbEntity
  8
0
  6
BYBLOCK
 62
     0
100
AcDbLine
 10
71.862337
 20
7.189672
 30
0.0
 11
71.862337
 21
1.583087
 31
0.0
  0
LINE
  5
17D
100
AcDbEntity
  8
0
  6
BYBLOCK
 62
     0
100
AcDbLine
 10
55.662337
 20
3.383087
 30
0.0
 11
58.962337
 21
3.383087
 31
0.0
  0
LINE
  5
17E
100
AcDbEntity
  8
0
  6
BYBLOCK
 62
     0
100
AcDbLine
 10
70.062337
 20
3.383087
 30
0.0
 11
66.762337
 21
3.383087
 31
0.0
  0
SOLID
  5
17F
100
AcDbEntity
  8
0
  6
BYBLOCK
 62
     0
100
AcDbTrace
 10
55.662337
 20
3.683087
 30
0.0
 11
55.662337
 21
3.083087
 31
0.0
 12
53.862337
 22
3.383087
 32
0.0
 13
53.862337
 23
3.383087
 33
0.0
  0
SOLID
  5
180
100
AcDbEntity
  8
0
  6
BYBLOCK
 62
     0
100
AcDbTrace
 10
70.062337
 20
3.683087
 30
0.0
 11
70.062337
 21
3.083087
 31
0.0
 12
71.862337
 22
3.383087
 32
0.0
 13
71.862337
 23
3.383087
 33
0.0
  0
MTEXT
  5
181
100
AcDbEntity
  8
0
  6
BYBLOCK
 62
     0
100
AcDbMText
 10
62.862337
 20
3.383087
 30
0.0
 40
1.8
 41
0.0
 71
     5
 72
     1
  1
18
  0
POINT
  5
182
100
AcDbEntity
  8
DEFPOINTS
  6
BYBLOCK
 62
     0
100
AcDbPoint
 10
53.862337
 20
7.814672
 30
0.0
  0
POINT
  5
183
100
AcDbEntity
  8
DEFPOINTS
  6
BYBLOCK
 62
     0
100
AcDbPoint
 10
71.862337
 20
7.814672
 30
0.0
  0
POINT
  5
184
100
AcDbEntity
  8
DEFPOINTS
  6
BYBLOCK
 62
     0
100
AcDbPoint
 10
71.862337
 20
3.383087
 30
0.0
  0
ARC
  5
18E
100
AcDbEntity
  8
0
  6
DASHDOT2
 48
0.1
100
AcDbCircle
 10
62.625467
 20
29.719818
 30
0.0
 40
4.5
100
AcDbArc
 50
308.942441
 51
231.057559
  0
LINE
  5
18F
100
AcDbEntity
  8
0
100
AcDbLine
 10
59.797039
 20
26.219818
 30
0.0
 11
63.625467
 21
26.219818
 31
0.0
  0
LINE
  5
190
100
AcDbEntity
  8
0
100
AcDbLine
 10
63.625467
 20
26.219818
 30
0.0
 11
63.625467
 21
34.1073
 31
0.0
  0
ARC
  5
191
100
AcDbEntity
  8
0
100
AcDbCircle
 10
62.882563
 20
30.328101
 30
0.0
 40
4.174913
100
AcDbArc
 50
280.250068
 51
2.704786
  0
LINE
  5
195
100
AcDbEntity
  8
0
  6
DASHDOT2
 48
0.1
100
AcDbLine
 10
63.625467
 20
26.219818
 30
0.0
 11
65.453894
 21
26.219818
 31
0.0
  0
ARC
  5
196
100
AcDbEntity
  8
0
100
AcDbCircle
 10
62.625467
 20
29.719818
 30
0.0
 40
4.5
100
AcDbArc
 50
10.308887
 51
231.057559
  0
DIMENSION
  5
1A4
100
AcDbEntity
  8
0
100
AcDbDimension
  2
*D11
 10
67.057475
 20
36.54352
 30
0.0
 11
62.591471
 21
36.54352
 31
0.0
 12
-35.006656
 22
14.124936
 32
0.0
 70
    32
  1
9
  3
STANDARD_WS
100
AcDbAlignedDimension
 13
58.125467
 23
29.719818
 33
0.0
 14
67.057475
 24
30.328101
 34
0.0
100
AcDbRotatedDimension
  0
LINE
  5
1C1
100
AcDbEntity
  8
0
  6
BYBLOCK
 62
     0
100
AcDbLine
 10
63.625467
 20
25.594818
 30
0.0
 11
63.625467
 21
20.329552
 31
0.0
  0
LINE
  5
1C2
100
AcDbEntity
  8
0
  6
BYBLOCK
 62
     0
100
AcDbLine
 10
67.125467
 20
29.094818
 30
0.0
 11
67.125467
 21
20.329552
 31
0.0
  0
LINE
  5
1C3
100
AcDbEntity
  8
0
  6
BYBLOCK
 62
     0
100
AcDbLine
 10
61.825467
 20
22.129552
 30
0.0
 11
60.025467
 21
22.129552
 31
0.0
  0
LINE
  5
1C4
100
AcDbEntity
  8
0
  6
BYBLOCK
 62
     0
100
AcDbLine
 10
68.925467
 20
22.129552
 30
0.0
 11
70.725467
 21
22.129552
 31
0.0
  0
SOLID
  5
1C5
100
AcDbEntity
  8
0
  6
BYBLOCK
 62
     0
100
AcDbTrace
 10
61.825467
 20
22.429552
 30
0.0
 11
61.825467
 21
21.829552
 31
0.0
 12
63.625467
 22
22.129552
 32
0.0
 13
63.625467
 23
22.129552
 33
0.0
  0
SOLID
  5
1C6
100
AcDbEntity
  8
0
  6
BYBLOCK
 62
     0
100
AcDbTrace
 10
68.925467
 20
22.429552
 30
0.0
 11
68.925467
 21
21.829552
 31
0.0
 12
67.125467
 22
22.129552
 32
0.0
 13
67.125467
 23
22.129552
 33
0.0
  0
MTEXT
  5
1C7
100
AcDbEntity
  8
0
  6
BYBLOCK
 62
     0
100
AcDbMText
 10
65.462479
 20
21.92911
 30
0.0
 40
1.2
 41
0.0
 71
     5
 72
     1
  1
\A1;3.5
  0
POINT
  5
1C8
100
AcDbEntity
  8
DEFPOINTS
  6
BYBLOCK
 62
     0
100
AcDbPoint
 10
63.625467
 20
26.219818
 30
0.0
  0
POINT
  5
1C9
100
AcDbEntity
  8
DEFPOINTS
  6
BYBLOCK
 62
     0
100
AcDbPoint
 10
67.125467
 20
29.719818
 30
0.0
  0
POINT
  5
1CA
100
AcDbEntity
  8
DEFPOINTS
  6
BYBLOCK
 62
     0
100
AcDbPoint
 10
67.125467
 20
22.129552
 30
0.0
  0
LINE
  5
1CB
100
AcDbEntity
  8
0
  6
BYBLOCK
 62
     0
100
AcDbLine
 10
63.625467
 20
25.594818
 30
0.0
 11
63.625467
 21
22.233296
 31
0.0
  0
LINE
  5
1CC
100
AcDbEntity
  8
0
  6
BYBLOCK
 62
     0
100
AcDbLine
 10
58.138623
 20
29.438668
 30
0.0
 11
58.138623
 21
22.233296
 31
0.0
  0
LINE
  5
1CE
100
AcDbEntity
  8
0
  6
BYBLOCK
 62
     0
100
AcDbLine
 10
56.338623
 20
24.033296
 30
0.0
 11
54.538623
 21
24.033296
 31
0.0
  0
SOLID
  5
1D0
100
AcDbEntity
  8
0
  6
BYBLOCK
 62
     0
100
AcDbTrace
 10
56.338623
 20
24.333296
 30
0.0
 11
56.338623
 21
23.733296
 31
0.0
 12
58.138623
 22
24.033296
 32
0.0
 13
58.138623
 23
24.033296
 33
0.0
  0
MTEXT
  5
1D1
100
AcDbEntity
  8
0
  6
BYBLOCK
 62
     0
100
AcDbMText
 10
60.882045
 20
24.033296
 30
0.0
 40
1.8
 41
0.0
 71
     5
 72
     1
  1
\A1;5.5
  0
POINT
  5
1D2
100
AcDbEntity
  8
DEFPOINTS
  6
BYBLOCK
 62
     0
100
AcDbPoint
 10
63.625467
 20
26.219818
 30
0.0
  0
POINT
  5
1D3
100
AcDbEntity
  8
DEFPOINTS
  6
BYBLOCK
 62
     0
100
AcDbPoint
 10
58.138623
 20
30.063668
 30
0.0
  0
POINT
  5
1D4
100
AcDbEntity
  8
DEFPOINTS
  6
BYBLOCK
 62
     0
100
AcDbPoint
 10
58.138623
 20
24.033296
 30
0.0
  0
LINE
  5
1D6
100
AcDbEntity
  8
0
100
AcDbLine
 10
67.911862
 20
46.713659
 30
0.0
 11
67.911862
 21
59.713659
 31
0.0
  0
LINE
  5
1D7
100
AcDbEntity
  8
0
100
AcDbLine
 10
67.911862
 20
59.713659
 30
0.0
 11
19.911862
 21
59.713659
 31
0.0
  0
LINE
  5
1D8
100
AcDbEntity
  8
0
100
AcDbLine
 10
19.911862
 20
59.713659
 30
0.0
 11
19.911862
 21
46.713659
 31
0.0
  0
TEXT
  5
1D9
100
AcDbEntity
  8
0
100
AcDbText
 10
29.023183
 20
53.417019
 30
0.0
 40
1.0
  1
BOTTOM WING PANEL 4 MIL CORO
100
AcDbText
  0
LINE
  5
1DA
100
AcDbEntity
  8
0
100
AcDbLine
 10
67.911862
 20
69.713659
 30
0.0
 11
19.911862
 21
69.713659
 31
0.0
  0
LINE
  5
1DB
100
AcDbEntity
  8
0
100
AcDbLine
 10
67.911862
 20
69.713659
 30
0.0
 11
67.911862
 21
81.713659
 31
0.0
  0
LINE
  5
1DC
100
AcDbEntity
  8
0
100
AcDbLine
 10
67.911862
 20
81.713659
 30
0.0
 11
19.911862
 21
81.713659
 31
0.0
  0
LINE
  5
1DD
100
AcDbEntity
  8
0
100
AcDbLine
 10
19.911862
 20
81.713659
 30
0.0
 11
19.911862
 21
69.713659
 31
0.0
  0
TEXT
  5
1DE
100
AcDbEntity
  8
0
100
AcDbText
 10
29.442247
 20
75.512716
 30
0.0
 40
1.0
  1
TOP WING PANEL 2 MIL CORO
100
AcDbText
  0
MTEXT
  5
1E3
100
AcDbEntity
  8
0
100
AcDbMText
 10
48.291274
 20
77.500756
 30
0.0
 40
1.8
 41
0.0
 71
     4
 72
     1
  1
\A1;
  0
SOLID
  5
1E4
100
AcDbEntity
  8
0
100
AcDbTrace
 10
58.921082
 20
79.633865
 30
0.0
 11
59.21818
 21
81.434346
 31
0.0
 12
59.521081
 22
79.634832
 32
0.0
 13
59.521081
 23
79.634832
 33
0.0
  0
SOLID
  5
1E9
100
AcDbEntity
  8
0
100
AcDbTrace
 10
58.921082
 20
72.137805
 30
0.0
 11
59.21818
 21
70.337324
 31
0.0
 12
59.521081
 22
72.136838
 32
0.0
 13
59.521081
 23
72.136838
 33
0.0
  0
TEXT
  5
1EB
100
AcDbEntity
  8
0
100
AcDbText
 10
56.620017
 20
75.280452
 30
0.0
 40
1.0
  1
FLUTES
100
AcDbText
  0
TEXT
  5
1F1
100
AcDbEntity
  8
0
100
AcDbText
 10
38.428412
 20
50.901997
 30
0.0
 40
1.0
  1
FLUTES
100
AcDbText
  0
SOLID
  5
1F3
100
AcDbEntity
  8
0
100
AcDbTrace
 10
35.393823
 20
51.093273
 30
0.0
 11
33.593342
 21
51.390371
 31
0.0
 12
35.392856
 22
51.693272
 32
0.0
 13
35.392856
 23
51.693272
 33
0.0
  0
SOLID
  5
1F5
100
AcDbEntity
  8
0
100
AcDbTrace
 10
47.225762
 20
51.147885
 30
0.0
 11
49.026243
 21
51.444984
 31
0.0
 12
47.226729
 22
51.747885
 32
0.0
 13
47.226729
 23
51.747885
 33
0.0
  0
LINE
  5
1F6
100
AcDbEntity
  8
0
100
AcDbLine
 10
35.393339
 20
51.393272
 30
0.0
 11
37.392359
 21
51.402498
 31
0.0
  0
LINE
  5
1F9
100
AcDbEntity
  8
0
100
AcDbLine
 10
45.019977
 20
51.437702
 30
0.0
 11
47.226246
 21
51.447885
 31
0.0
  0
LINE
  5
1FE
100
AcDbEntity
  8
0
100
AcDbLine
 10
59.221082
 20
72.137322
 30
0.0
 11
59.217122
 21
74.593985
 31
0.0
  0
LINE
  5
1FF
100
AcDbEntity
  8
0
100
AcDbLine
 10
59.212957
 20
77.177909
 30
0.0
 11
59.208998
 21
79.634329
 31
0.0
  0
DIMENSION
  5
21B
100
AcDbEntity
  8
0
100
AcDbDimension
  2
*D15
 10
75.439737
 20
59.713659
 30
0.0
 11
75.439737
 21
53.213659
 31
0.0
 12
11.825797
 22
-0.612506
 32
0.0
 70
    32
  3
STANDARD_WS
100
AcDbAlignedDimension
 13
67.911862
 23
46.713659
 33
0.0
 14
67.911862
 24
59.713659
 34
0.0
 50
90.0
100
AcDbRotatedDimension
  0
LINE
  5
22A
100
AcDbEntity
  8
0
  6
DASHDOT2
 62
     2
 48
2.0
100
AcDbLine
 10
67.911862
 20
70.463659
 30
0.0
 11
19.911862
 21
70.463659
 31
0.0
  0
TEXT
  5
22B
100
AcDbEntity
  8
0
100
AcDbText
 10
7.447839
 20
64.094875
 30
0.0
 40
1.0
  1
OVERLAP LINE
100
AcDbText
  0
DIMENSION
  5
23A
100
AcDbEntity
  8
0
100
AcDbDimension
  2
*D17
 10
18.394474
 20
69.713659
 30
0.0
 11
13.294474
 21
66.113659
 31
0.0
 12
11.825797
 22
-0.612506
 32
0.0
 70
    32
  1
3/4
  3
STANDARD_WS
100
AcDbAlignedDimension
 13
19.911862
 23
70.463659
 33
0.0
 14
19.911862
 24
69.713659
 34
0.0
 50
90.0
100
AcDbRotatedDimension
  0
DIMENSION
  5
248
100
AcDbEntity
  8
0
100
AcDbDimension
  2
*D18
 10
67.911862
 20
85.81405
 30
0.0
 11
43.911862
 21
85.81405
 31
0.0
 12
11.825797
 22
-0.612506
 32
0.0
 70
    32
  3
STANDARD_WS
100
AcDbAlignedDimension
 13
19.911862
 23
81.713659
 33
0.0
 14
67.911862
 24
81.713659
 34
0.0
100
AcDbRotatedDimension
  0
LINE
  5
249
100
AcDbEntity
  8
0
  6
DASHDOT2
 62
     1
 48
0.5
100
AcDbLine
 10
67.911862
 20
70.713659
 30
0.0
 11
19.911862
 21
70.713659
 31
0.0
  0
DIMENSION
  5
258
100
AcDbEntity
  8
0
100
AcDbDimension
  2
*D19
 10
9.299711
 20
70.713659
 30
0.0
 11
12.299711
 21
74.313659
 31
0.0
 70
    32
  1
1
  3
STANDARD_WS
100
AcDbAlignedDimension
 13
19.911862
 23
69.713659
 33
0.0
 14
19.911862
 24
70.713659
 34
0.0
 50
90.0
100
AcDbRotatedDimension
  0
TEXT
  5
266
100
AcDbEntity
  8
0
100
AcDbText
 10
8.711787
 20
75.791666
 30
0.0
 40
1.0
  1
SCORE LINE
100
AcDbText
  0
LINE
  5
267
100
AcDbEntity
  8
0
  6
DASHDOT2
 62
     5
100
AcDbLine
 10
67.911862
 20
56.713659
 30
0.0
 11
19.911862
 21
56.713659
 31
0.0
  0
DIMENSION
  5
276
100
AcDbEntity
  8
0
100
AcDbDimension
  2
*D20
 10
15.504614
 20
56.713659
 30
0.0
 11
10.404614
 21
53.113659
 31
0.0
 70
    32
  3
STANDARD_WS
100
AcDbAlignedDimension
 13
19.911862
 23
59.713659
 33
0.0
 14
19.911862
 24
56.713659
 34
0.0
 50
90.0
100
AcDbRotatedDimension
  0
TEXT
  5
277
100
AcDbEntity
  8
0
100
AcDbText
 10
4.073579
 20
50.601501
 30
0.0
 40
1.0
  1
SPAR GLUE LINE
100
AcDbText
  0
LINE
  5
293
100
AcDbEntity
  8
0
  6
BYBLOCK
 62
     0
100
AcDbLine
 10
41.911862
 20
46.473659
 30
0.0
 11
41.911862
 21
42.921657
 31
0.0
  0
LINE
  5
294
100
AcDbEntity
  8
0
  6
BYBLOCK
 62
     0
100
AcDbLine
 10
45.911862
 20
46.473659
 30
0.0
 11
45.911862
 21
42.921657
 31
0.0
  0
MTEXT
  5
299
100
AcDbEntity
  8
0
  6
BYBLOCK
 62
     0
100
AcDbMText
 10
43.818195
 20
44.721657
 30
0.0
 40
1.8
 41
0.0
 71
     5
 72
     1
  1
4
  0
POINT
  5
29A
100
AcDbEntity
  8
DEFPOINTS
  6
BYBLOCK
 62
     0
100
AcDbPoint
 10
41.911862
 20
48.713659
 30
0.0
  0
POINT
  5
29C
100
AcDbEntity
  8
DEFPOINTS
  6
BYBLOCK
 62
     0
100
AcDbPoint
 10
45.911862
 20
44.721657
 30
0.0
  0
LINE
  5
29E
100
AcDbEntity
  8
0
100
AcDbLine
 10
41.911862
 20
44.406541
 30
0.0
 11
42.947169
 21
44.406541
 31
0.0
  0
LINE
  5
2A0
100
AcDbEntity
  8
0
100
AcDbLine
 10
44.826334
 20
44.423005
 30
0.0
 11
45.911862
 21
44.423005
 31
0.0
  0
LINE
  5
2A6
100
AcDbEntity
  8
0
  6
DASHDOT2
 62
     1
 48
0.2
100
AcDbLine
 10
40.911862
 20
46.713659
 30
0.0
 11
41.911862
 21
48.713659
 31
0.0
  0
LINE
  5
2A8
100
AcDbEntity
  8
0
  6
DASHDOT2
 62
     1
 48
0.2
100
AcDbLine
 10
46.511862
 20
46.713659
 30
0.0
 11
45.511862
 21
48.713659
 31
0.0
  0
LINE
  5
2A9
100
AcDbEntity
  8
0
  6
DASHDOT2
 62
     1
 48
0.2
100
AcDbLine
 10
41.911862
 20
48.713659
 30
0.0
 11
45.511862
 21
48.713659
 31
0.0
  0
LINE
  5
2AA
100
AcDbEntity
  8
0
100
AcDbLine
 10
19.911862
 20
46.713659
 30
0.0
 11
67.911862
 21
46.713659
 31
0.0
  0
LINE
  5
2AC
100
AcDbEntity
  8
0
  6
DASHDOT2
 62
     1
100
AcDbLine
 10
46.511862
 20
46.713659
 30
0.0
 11
67.911862
 21
47.713659
 31
0.0
  0
LINE
  5
2AD
100
AcDbEntity
  8
0
  6
DASHDOT2
 62
     1
100
AcDbLine
 10
40.911862
 20
46.713659
 30
0.0
 11
19.911862
 21
47.713659
 31
0.0
  0
LINE
  5
2BC
100
AcDbEntity
  8
0
  6
BYBLOCK
 62
     0
100
AcDbLine
 10
40.911862
 20
46.088659
 30
0.0
 11
40.911862
 21
38.411043
 31
0.0
  0
LINE
  5
2BD
100
AcDbEntity
  8
0
  6
BYBLOCK
 62
     0
100
AcDbLine
 10
46.511862
 20
46.088659
 30
0.0
 11
46.511862
 21
38.411043
 31
0.0
  0
MTEXT
  5
2C2
100
AcDbEntity
  8
0
  6
BYBLOCK
 62
     0
100
AcDbMText
 10
43.638016
 20
40.30588
 30
0.0
 40
1.8
 41
0.0
 71
     5
 72
     1
  1
\A1;6
  0
POINT
  5
2C3
100
AcDbEntity
  8
DEFPOINTS
  6
BYBLOCK
 62
     0
100
AcDbPoint
 10
40.911862
 20
46.713659
 30
0.0
  0
POINT
  5
2C4
100
AcDbEntity
  8
DEFPOINTS
  6
BYBLOCK
 62
     0
100
AcDbPoint
 10
46.511862
 20
46.713659
 30
0.0
  0
POINT
  5
2C5
100
AcDbEntity
  8
DEFPOINTS
  6
BYBLOCK
 62
     0
100
AcDbPoint
 10
46.511862
 20
40.211043
 30
0.0
  0
LINE
  5
2C6
100
AcDbEntity
  8
0
100
AcDbLine
 10
46.511862
 20
40.211043
 30
0.0
 11
44.736068
 21
40.211043
 31
0.0
  0
LINE
  5
2C9
100
AcDbEntity
  8
0
100
AcDbLine
 10
42.525046
 20
40.211043
 30
0.0
 11
40.911862
 21
40.211043
 31
0.0
  0
DIMENSION
  5
2D8
100
AcDbEntity
  8
0
100
AcDbDimension
  2
*D23
 10
18.241185
 20
46.713659
 30
0.0
 11
15.241185
 21
43.113659
 31
0.0
 70
    32
  1
1
  3
STANDARD_WS
100
AcDbAlignedDimension
 13
19.911862
 23
47.713659
 33
0.0
 14
19.911862
 24
46.713659
 34
0.0
 50
90.0
100
AcDbRotatedDimension
  0
TEXT
  5
2D9
100
AcDbEntity
  8
0
100
AcDbText
 10
10.258908
 20
40.368345
 30
0.0
 40
1.0
  1
TRIM AFTER BUILDING WING
100
AcDbText
  0
DIMENSION
  5
2E7
100
AcDbEntity
  8
0
100
AcDbDimension
  2
*D24
 10
67.911862
 20
63.497507
 30
0.0
 11
43.911862
 21
63.497507
 31
0.0
 70
    32
  3
STANDARD_WS
100
AcDbAlignedDimension
 13
19.911862
 23
59.713659
 33
0.0
 14
67.911862
 24
59.713659
 34
0.0
100
AcDbRotatedDimension
  0
ENDSEC
  0
SECTION
  2
OBJECTS
  0
DICTIONARY
  5
C
100
AcDbDictionary
  3
ACAD_GROUP
350
D
  3
ACAD_MLINESTYLE
350
1B
  3
ACDBVARIABLEDICTIONARY
350
30
  0
DICTIONARY
  5
D
102
{ACAD_REACTORS
330
C
102
}
100
AcDbDictionary
  0
DICTIONARY
  5
1B
102
{ACAD_REACTORS
330
C
102
}
100
AcDbDictionary
  3
STANDARD
350
1C
  0
DICTIONARY
  5
30
102
{ACAD_REACTORS
330
C
102
}
100
AcDbDictionary
  3
DIMADEC
350
31
  0
MLINESTYLE
  5
1C
102
{ACAD_REACTORS
330
1B
102
}
100
AcDbMlineStyle
  2
STANDARD
 70
     0
  3

 62
   256
 51
90.0
 52
90.0
 71
     2
 49
0.5
 62
   256
  6
BYLAYER
 49
-0.5
 62
   256
  6
BYLAYER
  0
DICTIONARYVAR
  5
31
102
{ACAD_REACTORS
330
30
102
}
100
DictionaryVariables
280
     0
  1
0
  0
ENDSEC
  0
EOF
